Приветствую Вас Гость

Торрент-Трекер » HDRip » Боевик

Испытание королевского стрелка Шарпа / Sharpe's Challenge HDRip торрент

[ ]



Испытание королевского стрелка Шарпа / Sharpe's Challenge бокс-арт

Информация о фильме
Название: Испытание королевского стрелка Шарпа
Оригинальное название: Sharpe's Challenge
Год выхода: 2006
Жанр: Боевик, приключения, военный, история
Режиссер: Том Клегг
В ролях: Шон Бин, Дара О’Мэлли, Тоби Стивенс, Падма Лакшми, Орельен Рекуан, Люси Браун, Майкл Кокрейн, Али Кхан, Хью Фрейзер, Питер-Хьюго Дэйли

О фильме: 1817 год. Прошло всего два года с момента, когда Наполеон был окончательно разгромлен в битве при Ватерлоо. Но для настоящих солдат империи всегда найдется работа. На этот раз Ричард Шарп отправляется в Индию. Ему предстоит выяснить, какие козни против британской короны замышляет один из тамошних наследных принцев. По прибытии в штат Раджастан бравого стрелка ждет неприятный сюрприз. Похищена дочь генерал-губернатора. Все силы брошены на поиски. Между тем обстановка все больше накаляется, зреют повстанческие настроения, и миссия становится все менее выполнимой…

Страна: Великобритания
Продолжительность: 01:45:46
Перевод: Профессиональный (многоголосый, закадровый)
Субтитры: Нет

Файл
Кодек: XviD
Качество: HDRip
Видео: 656x368 (1.78:1), 23.976 fps, XviD build 73 ~847 kbps avg, 0.15 bit/pixel
Звук: 48 kHz, MPEG Layer 3, 2 ch, ~128.00 kbps avg

MediaInfo
General
Complete name: Sharpe.s.Challenge.2006.HDRip.ot.Portablius.avi
Format: AVI
Format/Info: Audio Video Interleave
File size: 745 MiB
Duration: 1 h 45 min
Overall bit rate: 985 kb/s
Writing application: VirtualDubMod 1.5.10.3 | www.virtualdub-fr.org || (build 2550/release)
Writing library: VirtualDubMod build 2550/release

Video
ID: 0
Format: MPEG-4 Visual
Format profile: Advanced Simple@L5
Format settings, BVOP: 1
Format settings, QPel: No
Format settings, GMC: No warppoints
Format settings, Matrix: Custom
Codec ID: XVID
Codec ID/Hint: XviD
Duration: 1 h 45 min
Bit rate: 848 kb/s
Width: 656 pixels
Height: 368 pixels
Display aspect ratio: 16:9
Frame rate: 23.976 (24000/1001) FPS
Color space: YUV
Chroma subsampling: 4:2:0
Bit depth: 8 bits
Scan type: Progressive
Compression mode: Lossy
Bits/(Pixel*Frame): 0.146
Stream size: 641 MiB (86%)
Writing library: XviD 73

Audio
ID: 1
Format: MPEG Audio
Format version: Version 1
Format profile: Layer 3
Codec ID: 55
Codec ID/Hint: MP3
Duration: 1 h 45 min
Bit rate mode: Constant
Bit rate: 128 kb/s
Channel(s): 2 channels
Sampling rate: 48.0 kHz
Compression mode: Lossy
Stream size: 96.8 MiB (13%)
Alignment: Aligned on interleaves
Interleave, duration: 42 ms (1.00 video frame)
Interleave, preload duratio: 504 ms
Writing library: LAME3.99r
Encoding settings: -m s -V 4 -q 2 -lowpass 17 -b 1
Ссылка Испытание королевского стрелка Шарпа / Sharpe's Challenge скачать торрентом находится под похожими раздачами
Скриншоты Испытание королевского стрелка Шарпа / Sharpe's Challenge
Похожие раздачи на Испытание королевского стрелка Шарпа / Sharpe's Challenge

Испытание королевского стрелка Шарпа / Sharpe's Challenge скачать торрентом HDRip
Добавил: SxS | Просмотров: 359 | Рейтинг: 0.0/0
Добавлять комментарии могут только зарегистрированные пользователи.
[ Регистрация | Вход ]
Рекомендуем
World of Warships [CPP] RU + CIS
World of Tanks
Ужасы [101]
Horrors
Фантастика [87]
Fantastic
Боевик [101]
Action
Триллер [104]
Thriller
Криминал [3]
Crime
Военный [2]
Military
Вестерн [11]
Western
Документальный [6]
Documentary
Биография [4]
Biography
Драма [264]
Drama
Мелодрама [24]
Melodrama
Комедия [77]
Comedy
Мюзикл [7]
Musical
Приключения [13]
Adventure
Пародия [6]
Parody
Мультфильмы [23]
Cartoons
Мультсериал [1]
Animated series
Аниме [2]
Anime
Форма входа
Поиск
Лучшие раздачи