Приветствую Вас Гость

Торрент-Трекер » HDRip » Ужасы

Лачуга смерти / Мертвая лачуга / Dead Shack HDRip торрент

[ ]



Лачуга смерти / Мертвая лачуга / Dead Shack бокс-арт

Информация о фильме
Название:Лачуга смерти (Мертвая лачуга)
Оригинальное название: Dead Shack
Год выхода:2017
Жанр:ужасы
Режиссер: Питер Рикк
В ролях: Камерон Андрес, Лиззи Бойс, Ханна Рошель Бурр, Лорен Холли, Рафаэль Кемпиньский, Гэбриел ЛаБелль, Мэтью Нельсон-Махуд, Тейлор Ст. Пьер, Донаван Стинсон, Валери Тиан и другие.

Описание:
Два парня и девушка, приехавшие вместе с отцом и его новой подружкой в их загородный домик, вынуждены позднее спасаться от сумасшедшей соседки по сельскому захолустью. Соседка, регулярно отлавливает местных жителей и туристов, которыми она кормит свою семью, превратившуюся в зомби. Узнав, что ребята хотят сообщить всё о ее преступлениях полиции, она решает избавиться от лишних свидетелей любыми способами.

Страна:Канада
Студия:Goodbye Productions, Trilight Entertainment
Продолжительность:01:22:00
Перевод: Любительский (одноголосый) Хихикающий доктор

Файл
Кодек:XviD
Качество:HDRip
Видео:MPEG-4, XviD, 720x304, 23.976 fps, ~1585 kbps
Аудио №1: AC3 Dolby Digital, 6 ch, 348 kbps, 48 kHz (Русский)
Аудио №2: AC3 Dolby Digital, 6 ch, 348 kbps, 48 kHz (Английский)

Сэмпл:скачать

Релиз от: apollion: Работа со звуком (редактирование звуковых дорог).

Реклама отсутствует.
Вся реклама из звуковой дороги удалена. Дорога с русской озвучкой сделана в 5.1 как и оригинальная дорога.

MediaInfo Общее
Формат : AVI
Формат/Информация : Audio Video Interleave
Размер файла : 1,35 Гбайт
Продолжительность : 1 ч. 21 м.
Общий поток : 2367 Кбит/сек
Программа кодирования : VirtualDubMod 1.5.10.2 (build 2540/release)
Библиотека кодирования : VirtualDubMod build 2540/release

Видео
Идентификатор : 0
Формат : MPEG-4 Visual
Профиль формата : Advanced Simple@L5
Параметр BVOP формата : 2
Параметр QPel формата : Нет
Параметр GMC формата : Без точки перехода
Параметр матрицы формата : Default (H.263)
Режим смешивания : Сжатый битовый поток
Идентификатор кодека : XVID
Идентификатор кодека/Подсказка : XviD
Продолжительность : 1 ч. 21 м.
Битрейт : 1585 Кбит/сек
Ширина : 720 пикс.
Высота : 304 пикс.
Соотношение сторон : 2,35:1
Частота кадров : 23,976 кадр/сек
Цветовое пространство : YUV
Подвыборка цветности : 4:2:0
Битовая глубина : 8 бит
Тип развёртки : Прогрессивная
Метод сжатия : С потерями
Бит/(Пиксели*Кадры) : 0.302
Размер потока : 929 Мбайт (67%)
Библиотека кодирования : XviD 66

Аудио #1
Идентификатор : 1
Формат : AC-3
Формат/Информация : Audio Coding 3
Расширение режима : CM (complete main)
Идентификатор кодека : 2000
Продолжительность : 1 ч. 21 м.
Вид битрейта : Постоянный
Битрейт : 384 Кбит/сек
Каналы : 6 каналов
Расположение каналов : Front: L C R, Side: L R, LFE
Частота : 48,0 КГц
Битовая глубина : 16 бит
Метод сжатия : С потерями
Размер потока : 225 Мбайт (16%)
Выравнивание : Разделение по промежуткам
Продолжительность промежутка : 42 мс. (1,00 видеокадр)
Время предзагрузки промежутка : 500 ms

Аудио #2
Идентификатор : 2
Формат : AC-3
Формат/Информация : Audio Coding 3
Расширение режима : CM (complete main)
Идентификатор кодека : 2000
Продолжительность : 1 ч. 21 м.
Вид битрейта : Постоянный
Битрейт : 384 Кбит/сек
Каналы : 6 каналов
Расположение каналов : Front: L C R, Side: L R, LFE
Частота : 48,0 КГц
Битовая глубина : 16 бит
Метод сжатия : С потерями
Размер потока : 225 Мбайт (16%)
Выравнивание : Соединение по промежуткам
Продолжительность промежутка : 42 мс. (1,00 видеокадр)
Время предзагрузки промежутка : 512 ms



Залилapollion2
Ссылка Лачуга смерти / Мертвая лачуга / Dead Shack скачать торрентом находится под похожими раздачами
Скриншоты Лачуга смерти / Мертвая лачуга / Dead Shack
Похожие раздачи на Лачуга смерти / Мертвая лачуга / Dead Shack

Лачуга смерти / Мертвая лачуга / Dead Shack скачать торрентом HDRip
Добавил: SxS | Просмотров: 357 | Загрузок: 1 | Рейтинг: 5.0/1
Добавлять комментарии могут только зарегистрированные пользователи.
[ Регистрация | Вход ]
Ужасы [101]
Horrors
Фантастика [87]
Fantastic
Боевик [101]
Action
Триллер [104]
Thriller
Криминал [3]
Crime
Военный [2]
Military
Вестерн [11]
Western
Документальный [6]
Documentary
Биография [4]
Biography
Драма [264]
Drama
Мелодрама [24]
Melodrama
Комедия [77]
Comedy
Мюзикл [7]
Musical
Приключения [13]
Adventure
Пародия [6]
Parody
Мультфильмы [23]
Cartoons
Мультсериал [1]
Animated series
Аниме [2]
Anime
Форма входа
Поиск
Лучшие раздачи