Приветствую Вас Гость

Торрент-Трекер » HDRip » Драма

Бетховен / Beethoven HDRip торрент

[ ]



Бетховен / Beethoven бокс-арт

Информация о фильме
Название:Бетховен
Оригинальное название:Beethoven
Год выхода:1992
Жанр:драма, комедия, семейный
Режиссер:Брайан Левант
В ролях:Чарльз Гродин, Бонни Хант, Дин Джонс, Николь Том, Кристофер Кастиль, Сара Роуз Карр, Оливер Платт, Стэнли Туччи, Дэвид Духовны, Патриция Хитон

О фильме:Герой фильма - не великий композитор, а случайно названный его именем симпатяга-сенбернар. Попав еще щенком в приютившую его семью, пес быстро подружился с детьми и их матерью - только отец поглядывал на беспокойного домочадца косо.

Страна:США
Студия:Northern Lights Entertainment, Universal Pictures
Продолжительность:01:27:01
Перевод:Профессиональный (многоголосый, закадровый) 'НТВ'
Субтитры:Нет

Файл
Кодек:XviD
Качество:HDRip
Видео:688x368 (1.87:1), 23.976 fps, XviD build 73 ~1799 kbps avg, 0.30 bit/pixel
Звук:48 kHz, AC3 Dolby Digital, 2/0 (L,R) ch, ~192 kbps

MediaInfo
General
Complete name : Beethoven.1992.HDRip.ot.Portablius.avi
Format : AVI
Format/Info : Audio Video Interleave
File size : 1.22 GiB
Duration : 1 h 27 min
Overall bit rate : 2 001 kb/s
Writing application : VirtualDubMod 1.5.10.3 | www.virtualdub-fr.org || (build 2550/release)
Writing library : VirtualDubMod build 2550/release

Video
ID : 0
Format : MPEG-4 Visual
Format profile : Advanced Simple@L5
Format settings, BVOP : 1
Format settings, QPel : No
Format settings, GMC : No warppoints
Format settings, Matrix : Custom
Codec ID : XVID
Codec ID/Hint : XviD
Duration : 1 h 27 min
Bit rate : 1 799 kb/s
Width : 688 pixels
Height : 368 pixels
Display aspect ratio : 1.85:1
Frame rate : 23.976 (24000/1001) FPS
Original frame rate : 23.976 (23976/1000) FPS
Color space : YUV
Chroma subsampling : 4:2:0
Bit depth : 8 bits
Scan type : Progressive
Compression mode : Lossy
Bits/(Pixel*Frame) : 0.296
Stream size : 1.09 GiB (90%)
Writing library : XviD 73

Audio
ID : 1
Format : AC-3
Format/Info : Audio Coding 3
Format settings, Endianness : Big
Codec ID : 2000
Duration : 1 h 27 min
Bit rate mode : Constant
Bit rate : 192 kb/s
Channel(s) : 2 channels
Channel positions : Front: L R
Sampling rate : 48.0 kHz
Frame rate : 31.250 FPS (1536 spf)
Bit depth : 16 bits
Compression mode : Lossy
Stream size : 120 MiB (10%)
Alignment : Split accross interleaves
Interleave, duration : 42 ms (1.00 video frame)
Interleave, preload duratio : 500 ms
Service kind : Complete Main


ЗалилEvgen Portable
Ссылка Бетховен / Beethoven скачать торрентом находится под похожими раздачами
Скриншоты Бетховен / Beethoven
Похожие раздачи на Бетховен / Beethoven

Бетховен / Beethoven скачать торрентом HDRip
Добавил: SxS | Просмотров: 617 | Загрузок: 3 | Рейтинг: 0.0/0
Добавлять комментарии могут только зарегистрированные пользователи.
[ Регистрация | Вход ]
Ужасы [101]
Horrors
Фантастика [87]
Fantastic
Боевик [101]
Action
Триллер [104]
Thriller
Криминал [3]
Crime
Военный [2]
Military
Вестерн [11]
Western
Документальный [6]
Documentary
Биография [4]
Biography
Драма [264]
Drama
Мелодрама [24]
Melodrama
Комедия [77]
Comedy
Мюзикл [7]
Musical
Приключения [13]
Adventure
Пародия [6]
Parody
Мультфильмы [23]
Cartoons
Мультсериал [1]
Animated series
Аниме [2]
Anime
Форма входа
Поиск
Лучшие раздачи