Приветствую Вас Гость

Торрент-Трекер » HDRip » Криминал

Хроники Франкенштейна / The Frankenstein Chronicles HDRip торрент

[ ]



Хроники Франкенштейна / The Frankenstein Chronicles бокс-арт

Страна: Великобритания
Производство: Rainmark Films
Жанр: Криминал, драма
Год выпуска: 2017
Продолжительность: 6 х ~ 00:44:00
Режиссер: Бенжамин Росс
В ролях: Шон Бин, Шон Блэйни, Ричи Кэмпелл, Люси Миллер, Кит Коннор, Чарли Крид-Майлз, Дирдри Доннелли, Патрик Фицсимонс, Джоэль Гильман, Стюарт Грэхэм, Ванесса Кирби, Энтони Моррис, Дирдри Маллинз, Джесси Росс, Райан Сэмпсон, Элуиз Смит, Джо Такер, Сэмюэл Уэст, Анна Максвелл Мартин
Описание: Действие криминальной драмы развернется в Лондоне 1827 года. Инспектор полиции Джон Марлотт обнаруживает на берегу Темзы труп ребенка, собранного из кусков разных человеческих тел. Марлотт берется за расследование страшного преступления и сталкивается с кошмаром куда большим, чем мог себе представить.

Исходник: (Немецкий Blu-ray 1080р)
Тип релиза: HDRip
Перевод: Профессиональный многоголосый (LostFilm)
Контейнер: AVI
Видео: 720x400 (1.80:1), 29.970 fps, XviD MPEG-4 ~2364 kbps avg, 0.27 bit/pixel
Аудио 1: 48 kHz, AC3 Dolby Digital, 2/0 (L,R) ch, ~192 kbps (русский)
Аудио 2: 48 kHz, AC3 Dolby Digital, 3/2 (L,C,R,l,r) + LFE ch, ~448 kbps (английский)
Аудио 3: 48 kHz, AC3 Dolby Digital, 3/2 (L,C,R,l,r) + LFE ch, ~448 kbps (немецкий)

MediaInfo

Общее
Полное имя: G:ААА2Хроники Франкенштейна 2серия 1.avi
Формат: AVI
Формат/Информация: Audio Video Interleave
Размер файла: 1,08 Гбайт
Продолжительность: 44 м.
Общий поток: 3476 Кбит/сек
Программа кодирования: VirtualDubMod 1.5.10.2 (build 2540/release)
Библиотека кодирования: VirtualDubMod build 2540/release

Видео
Идентификатор: 0
Формат: MPEG-4 Visual
Профиль формата: Advanced Simple@L5
Параметр BVOP формата: 2
Параметр QPel формата: Нет
Параметр GMC формата: Без точки перехода
Параметр матрицы формата: Default (MPEG)
Идентификатор кодека: XVID
Идентификатор кодека/Подсказка: XviD
Продолжительность: 44 м.
Битрейт: 2366 Кбит/сек
Ширина: 720 пикселей
Высота: 400 пикселей
Соотношение сторон: 16:9
Частота кадров: 29,970 кадров/сек
Цветовое пространство: YUV
Субдискретизация насыщенности: 4:2:0
Битовая глубина: 8 бит
Тип развёртки: Прогрессивная
Метод сжатия: С потерями
Бит/(Пиксели*Кадры): 0.274
Размер потока: 750 Мбайт (68%)
Библиотека кодирования: XviD 1.2.1 (UTC 2008-12-04)

Аудио #1
Идентификатор: 1
Формат: AC-3
Формат/Информация: Audio Coding 3
Расширение режима: CM (complete main)
Параметр Endianness формата: Big
Идентификатор кодека: 2000
Продолжительность: 44 м.
Вид битрейта: Постоянный
Битрейт: 192 Кбит/сек
Каналы: 2 канала
Расположение каналов: Front: L R
Частота: 48,0 КГц
Битовая глубина: 16 бит
Метод сжатия: С потерями
Задержка видео: 22 мс.
Размер потока: 60,5 Мбайт (5%)
Выравнивание: Разделение по промежуткам
Продолжительность промежутка: 34 мс. (1,01 видеокадр)
Время предзагрузки промежутка: 500 мс.

Аудио #2
Идентификатор: 2
Формат: AC-3
Формат/Информация: Audio Coding 3
Расширение режима: CM (complete main)
Параметр Endianness формата: Big
Идентификатор кодека: 2000
Продолжительность: 44 м.
Вид битрейта: Постоянный
Битрейт: 448 Кбит/сек
Каналы: 6 каналов
Расположение каналов: Front: L C R, Side: L R, LFE
Частота: 48,0 КГц
Битовая глубина: 16 бит
Метод сжатия: С потерями
Размер потока: 142 Мбайт (13%)
Выравнивание: Разделение по промежуткам
Продолжительность промежутка: 33 мс. (1,00 видеокадр)
Время предзагрузки промежутка: 500 мс.

Аудио #3
Идентификатор: 3
Формат: AC-3
Формат/Информация: Audio Coding 3
Расширение режима: CM (complete main)
Параметр Endianness формата: Big
Идентификатор кодека: 2000
Продолжительность: 44 м.
Вид битрейта: Постоянный
Битрейт: 448 Кбит/сек
Каналы: 6 каналов
Расположение каналов: Front: L C R, Side: L R, LFE
Частота: 48,0 КГц
Битовая глубина: 16 бит
Метод сжатия: С потерями
Размер потока: 142 Мбайт (13%)
Выравнивание: Разделение по промежуткам
Продолжительность промежутка: 33 мс. (1,00 видеокадр)
Время предзагрузки промежутка: 500 мс.


Релиз:
Ссылка Хроники Франкенштейна / The Frankenstein Chronicles скачать торрентом находится под похожими раздачами
Скриншоты Хроники Франкенштейна / The Frankenstein Chronicles
Похожие раздачи на Хроники Франкенштейна / The Frankenstein Chronicles

Хроники Франкенштейна / The Frankenstein Chronicles скачать торрентом HDRip
Добавил: SxS | Просмотров: 462 | Загрузок: 1 | Рейтинг: 0.0/0
Добавлять комментарии могут только зарегистрированные пользователи.
[ Регистрация | Вход ]
Ужасы [101]
Horrors
Фантастика [87]
Fantastic
Боевик [101]
Action
Триллер [104]
Thriller
Криминал [3]
Crime
Военный [2]
Military
Вестерн [11]
Western
Документальный [6]
Documentary
Биография [4]
Biography
Драма [264]
Drama
Мелодрама [24]
Melodrama
Комедия [77]
Comedy
Мюзикл [7]
Musical
Приключения [13]
Adventure
Пародия [6]
Parody
Мультфильмы [23]
Cartoons
Мультсериал [1]
Animated series
Аниме [2]
Anime
Форма входа
Поиск
Лучшие раздачи