Приветствую Вас Гость

Торрент-Трекер » HDRip » Боевик

Отважная / Mardaani HDRip торрент

[ ]



Отважная / Mardaani бокс-арт

Информация о фильме
Название:Отважная
Оригинальное название:Mardaani
Год выхода:2014
Жанр:боевик, триллер, драма
Режиссер:Прадип Саркар
В ролях:Рани Мукхерджи, Тахир Радж Бхасин, П. Шарма, Мона Эмбигаонкар, Анил Джордж, Кинджал Джайн, Рио Кападиа

О фильме:Старший инспектор отдела полиции Мумбаи по борьбе с организованной преступностью Шивани Шиваджи Рой наделена безграничной отвагой и неподкупностью. Глава мафии, специализирующейся на торговле детьми совершает ошибку — похищает девочку-подростка Пьяри, торгующую цветами на улице, которая очень дорога семье Шивани, где к ней относятся как к дочери. Когда Пьяри не появляется несколько дней, Шивани понимает, что с ней что-то случилось. В поисках девушки, Шивани приходится столкнуться с миром упадка и разврата, жестоких желаний и эксплуатации детей...

Страна:Индия
Студия:Yash Raj Films Pvt. Ltd
Продолжительность:01:53:30
Перевод:Любительский (многоголосый, закадровый) | ICG
Субтитры:Нет

Файл
Кодек:XviD
Качество:HDRip
Видео:688x288 (2.39:1), 24 fps, XviD build 73 ~727 kbps avg, 0.15 bit/pixel
Звук:48 kHz, MPEG Layer 3, 2 ch, ~128.00 kbps avg

MediaInfo
General
Complete name : Mardaani.2014.HDRip.ot.Portablius.avi
Format : AVI
Format/Info : Audio Video Interleave
File size : 702 MiB
Duration : 1 h 53 min
Overall bit rate : 865 kb/s
Writing application : VirtualDubMod 1.5.10.3 | www.virtualdub-fr.org || (build 2550/release)
Writing library : VirtualDubMod build 2550/release

Video
ID : 0
Format : MPEG-4 Visual
Format profile : Advanced Simple@L5
Format settings, BVOP : 1
Format settings, QPel : No
Format settings, GMC : No warppoints
Format settings, Matrix : Custom
Codec ID : XVID
Codec ID/Hint : XviD
Duration : 1 h 53 min
Bit rate : 728 kb/s
Width : 688 pixels
Height : 288 pixels
Display aspect ratio : 2.40:1
Frame rate : 24.000 FPS
Color space : YUV
Chroma subsampling : 4:2:0
Bit depth : 8 bits
Scan type : Progressive
Compression mode : Lossy
Bits/(Pixel*Frame) : 0.153
Stream size : 591 MiB (84%)
Writing library : XviD 73

Audio
ID : 1
Format : MPEG Audio
Format version : Version 1
Format profile : Layer 3
Codec ID : 55
Codec ID/Hint : MP3
Duration : 1 h 53 min
Bit rate mode : Constant
Bit rate : 128 kb/s
Channel(s) : 2 channels
Sampling rate : 48.0 kHz
Compression mode : Lossy
Stream size : 104 MiB (15%)
Alignment : Aligned on interleaves
Interleave, duration : 42 ms (1.00 video frame)
Interleave, preload duratio : 504 ms
Writing library : LAME3.99r
Encoding settings : -m s -V 4 -q 2 -lowpass 17 -b 128


ЗалилEvgen Portable
Ссылка Отважная / Mardaani скачать торрентом находится под похожими раздачами
Скриншоты Отважная / Mardaani
Похожие раздачи на Отважная / Mardaani

Отважная / Mardaani скачать торрентом HDRip
Добавил: SxS | Просмотров: 385 | Загрузок: 1 | Рейтинг: 0.0/0
Добавлять комментарии могут только зарегистрированные пользователи.
[ Регистрация | Вход ]
Ужасы [101]
Horrors
Фантастика [87]
Fantastic
Боевик [101]
Action
Триллер [104]
Thriller
Криминал [3]
Crime
Военный [2]
Military
Вестерн [11]
Western
Документальный [6]
Documentary
Биография [4]
Biography
Драма [264]
Drama
Мелодрама [24]
Melodrama
Комедия [77]
Comedy
Мюзикл [7]
Musical
Приключения [13]
Adventure
Пародия [6]
Parody
Мультфильмы [23]
Cartoons
Мультсериал [1]
Animated series
Аниме [2]
Anime
Форма входа
Поиск
Лучшие раздачи