Приветствую Вас Гость

Торрент-Трекер » HDRip » Боевик

Максимальный удар / Maximum Impact HDRip торрент

[ ]



Максимальный удар / Maximum Impact бокс-арт

Информация о фильме
Название:Максимальный удар
Оригинальное название:Maximum Impact
Год выхода:2017
Жанр:боевик, комедия
Режиссер:Анджей Бартковяк
В ролях:Александр Невский, Евгений Стычкин, Дэнни Трехо, Кит Пауэрс, Том Арнольд, Марк Дакаскос, Эрик Робертс, Бай Лин, Келли Ху

О фильме:Лучшим агентам ФСБ и ЦРУ предстоит совместная миссия — остановить преступного лидера, похитившего внучку госсекретаря США, который прибыл в Москву с тайным визитом. В случае провала миру грозит взрывоопасный кризис...

Страна:США, Россия
Студия:Hollywood Storm, Nextgen Entertainment, Кинокомпания «Царь»
Продолжительность:01:49:45
Перевод:Профессиональный (полное дублирование) | Лицензия
Субтитры:Нет

Файл
Кодек:XviD
Качество:HDRip
Видео:640x272 (2.35:1), 24 fps, XviD build 73 ~753 kbps avg, 0.18 bit/pixel
Звук:48 kHz, MPEG Layer 3, 2 ch, ~128.00 kbps avg

MediaInfo
General
Complete name : Maximum.Impact.2017.HDRip.ot.Portablius.avi
Format : AVI
Format/Info : Audio Video Interleave
File size : 699 MiB
Duration : 1 h 49 min
Overall bit rate : 891 kb/s
Writing application : VirtualDubMod 1.5.10.3 | www.virtualdub-fr.org || (build 2550/release)
Writing library : VirtualDubMod build 2550/release

Video
ID : 0
Format : MPEG-4 Visual
Format profile : Advanced Simple@L5
Format settings, BVOP : 1
Format settings, QPel : No
Format settings, GMC : No warppoints
Format settings, Matrix : Custom
Codec ID : XVID
Codec ID/Hint : XviD
Duration : 1 h 49 min
Bit rate : 753 kb/s
Width : 640 pixels
Height : 272 pixels
Display aspect ratio : 2.35:1
Frame rate : 24.000 FPS
Color space : YUV
Chroma subsampling : 4:2:0
Bit depth : 8 bits
Scan type : Progressive
Compression mode : Lossy
Bits/(Pixel*Frame) : 0.180
Stream size : 591 MiB (85%)
Writing library : XviD 73

Audio
ID : 1
Format : MPEG Audio
Format version : Version 1
Format profile : Layer 3
Codec ID : 55
Codec ID/Hint : MP3
Duration : 1 h 49 min
Bit rate mode : Constant
Bit rate : 128 kb/s
Channel(s) : 2 channels
Sampling rate : 48.0 kHz
Compression mode : Lossy
Stream size : 100 MiB (14%)
Alignment : Aligned on interleaves
Interleave, duration : 42 ms (1.00 video frame)
Interleave, preload duratio : 504 ms
Writing library : LAME3.99r
Encoding settings : -m s -V 4 -q 2 -lowpass 17 -b 128


ЗалилEvgen Portable
Ссылка Максимальный удар / Maximum Impact скачать торрентом находится под похожими раздачами
Скриншоты Максимальный удар / Maximum Impact
Похожие раздачи на Максимальный удар / Maximum Impact

Максимальный удар / Maximum Impact скачать торрентом HDRip
Добавил: SxS | Просмотров: 388 | Загрузок: 1 | Рейтинг: 0.0/0
Добавлять комментарии могут только зарегистрированные пользователи.
[ Регистрация | Вход ]
Ужасы [101]
Horrors
Фантастика [87]
Fantastic
Боевик [101]
Action
Триллер [104]
Thriller
Криминал [3]
Crime
Военный [2]
Military
Вестерн [11]
Western
Документальный [6]
Documentary
Биография [4]
Biography
Драма [264]
Drama
Мелодрама [24]
Melodrama
Комедия [77]
Comedy
Мюзикл [7]
Musical
Приключения [13]
Adventure
Пародия [6]
Parody
Мультфильмы [23]
Cartoons
Мультсериал [1]
Animated series
Аниме [2]
Anime
Форма входа
Поиск
Лучшие раздачи