Приветствую Вас Гость

Total War: ARENA
Торрент-Трекер » HDRip » Вестерн

Ушедшие дни / Gone Are the Days (HDRip) скачать торрент

[ Раздача закрыта по требованию правообладателя ]



Ушедшие дни / Gone Are the Days (HDRip) скачать торрент Вестерн - Торрент-Трекер

Информация о фильме
Название:Ушедшие дни
Оригинальное название:Gone Are the Days
Год выхода:2018
Жанр:Вестерн
Режиссер:Марк Ландре Гулд
В ролях:Дэнни Трехо, Том Беренджер, Лэнс Хенриксен, Лулу Уилсон, Стив Рейлсбэк, Мэг Чэмберс Стидл, Крис Романо, Джейми МакШейн, Билли Лаш, Картер Хатингс

О фильме:Фильм рассказывает историю пожилого и больного разбойника Тэйлона Флинна. Тэйлон понимает, что жить ему осталось недолго, и перед смертью решает спасти свою дочь, которую он когда-то бросил, от нелегкой судьбы. Чтобы это сделать, ему придётся снова встретиться лицом к лицу со старыми врагами и демонами прошлого.

Страна:США
Студия:Directional Entertainment
Продолжительность:01:40:00
Перевод:Профессиональный (многоголосый, закадровый) [HDrezka Studio]
Субтитры:Нет

Файл
Кодек:XviD
Качество:HDRip
Видео:720x304 (2.37:1), 23.976 fps, XviD build 73 ~841 kbps avg, 0.16 bit/pixel
Звук:48 kHz, MPEG Layer 3, 2 ch, ~128.00 kbps avg

MediaInfo
General
Complete name : Gone.Are.The.Days.HDRip.ot.Portablius.avi
Format : AVI
Format/Info : Audio Video Interleave
File size : 700 MiB
Duration : 1 h 39 min
Overall bit rate : 979 kb/s
Writing application : VirtualDubMod 1.5.10.3 | www.virtualdub-fr.org || (build 2550/release)
Writing library : VirtualDubMod build 2550/release

Video
ID : 0
Format : MPEG-4 Visual
Format profile : Advanced Simple@L5
Format settings, BVOP : 1
Format settings, QPel : No
Format settings, GMC : No warppoints
Format settings, Matrix : Custom
Codec ID : XVID
Codec ID/Hint : XviD
Duration : 1 h 39 min
Bit rate : 842 kb/s
Width : 720 pixels
Height : 304 pixels
Display aspect ratio : 2.35:1
Frame rate : 23.976 (24000/1001) FPS
Color space : YUV
Chroma subsampling : 4:2:0
Bit depth : 8 bits
Scan type : Progressive
Compression mode : Lossy
Bits/(Pixel*Frame) : 0.160
Stream size : 602 MiB (86%)
Writing library : XviD 73

Audio
ID : 1
Format : MPEG Audio
Format version : Version 1
Format profile : Layer 3
Codec ID : 55
Codec ID/Hint : MP3
Duration : 1 h 39 min
Bit rate mode : Constant
Bit rate : 128 kb/s
Channel(s) : 2 channels
Sampling rate : 48.0 kHz
Compression mode : Lossy
Stream size : 91.6 MiB (13%)
Alignment : Aligned on interleaves
Interleave, duration : 42 ms (1.00 video frame)
Interleave, preload duratio : 504 ms
Writing library : LAME3.99r
Encoding settings : -m s -V 4 -q 2 -lowpass 17 -b 128


ЗалилEvgen Portable
Ссылка Ушедшие дни / Gone Are the Days (HDRip) скачать торрент Вестерн - Торрент-Трекер находится под похожими раздачами Download Torrent
Ушедшие дни / Gone Are the Days (HDRip) скачать торрент Вестерн - Торрент-Трекер
Скриншоты Ушедшие дни / Gone Are the Days

скачать торрент, Игры на PC, Download Torrent, мультфильм, фильм, hdrip, Вестерн
Добавил: SxS | Просмотров: 14 | Загрузок: 1 | Рейтинг: 0.0/0
Добавлять комментарии могут только зарегистрированные пользователи.
[ Регистрация | Вход ]
Ужасы [56]
Horrors
Фантастика [58]
Fantastic
Боевик [66]
Action
Триллер [54]
Thriller
Криминал [2]
Crime
Военный [2]
Military
Вестерн [7]
Western
Документальный [6]
Documentary
Биография [2]
Biography
Драма [188]
Drama
Мелодрама [12]
Melodrama
Комедия [50]
Comedy
Мюзикл [3]
Musical
Приключения [5]
Adventure
Пародия [3]
Parody
Мультфильмы [13]
Cartoons
Мультсериал [1]
Animated series
Аниме [2]
Anime
Форма входа
Поиск
Лучшие раздачи