Приветствую Вас Гость

World of Warships [SOI] RU+CIS
Торрент-Трекер » HDRip » Вестерн

Джонни-Гитара / Johnny Guitar (HDRip) скачать торрент

[ ]



Джонни-Гитара / Johnny Guitar (HDRip) скачать торрент Вестерн - Торрент-Трекер

Страна: США
Производство: Republic Pictures (I)
Жанр: Вестерн
Год выпуска: 1954
Продолжительность: 01:50:02
Режиссер: Николас Рэй
В ролях: Джоан Кроуфорд, Стерлинг Хейден, Мерседес МакКэмбридж, Скотт Брэди, Уорд Бонд, Бен Купер, Эрнест Боргнайн, Джон Кэрредин, Роял Дано, Фрэнк Фергюсон, Пол Фикс, Йен МакДональд
Описание: Салун Вьенн расположен на том участке земли, по которому скоро пройдет железная дорога. В салуне постоянно ошивается Танцующий Кид, который влюблен во Вьенн, и которого страстно желает заполучить старая дева Эмма Смол. Эмма собирает толпу, чтобы сжечь салун и повесить Кида…

Исходник: Исходник U.S Blu-ray 1080р
Тип релиза: HDRip
Перевод: Авторский (Кузнецов)
Контейнер: AVI
Видео: 704x424 (1.66:1), 23.976 fps, XviD MPEG-4 ~1705 kbps avg, 0.24 bit/pixel
Аудио 1: 48 kHz, AC3 Dolby Digital, 2/0 (L,R) ch, ~192 kbps (русский)

MediaInfo

Общее
Полное имя: G:ААА2Джонни Гитара.avi
Формат: AVI
Формат/Информация: Audio Video Interleave
Размер файла: 1,47 Гбайт
Продолжительность: 1 ч. 50 м.
Общий поток: 1907 Кбит/сек
Программа кодирования: VirtualDubMod 1.5.10.3 | www.virtualdub-fr.org || (build 2550/release)
Библиотека кодирования: VirtualDubMod build 2550/release

Видео
Идентификатор: 0
Формат: MPEG-4 Visual
Профиль формата: Advanced Simple@L5
Параметр BVOP формата: 2
Параметр QPel формата: Нет
Параметр GMC формата: Без точки перехода
Параметр матрицы формата: Default (MPEG)
Режим смешивания: Сжатый битовый поток
Идентификатор кодека: XVID
Идентификатор кодека/Подсказка: XviD
Продолжительность: 1 ч. 50 м.
Битрейт: 1706 Кбит/сек
Ширина: 704 пикселя
Высота: 424 пикселя
Соотношение сторон: 1,660
Частота кадров: 23,976 кадра/сек
Цветовое пространство: YUV
Субдискретизация насыщенности: 4:2:0
Битовая глубина: 8 бит
Тип развёртки: Прогрессивная
Метод сжатия: С потерями
Бит/(Пиксели*Кадры): 0.238
Размер потока: 1,31 Гбайт (89%)
Библиотека кодирования: XviD 1.2.1 (UTC 2008-12-04)

Аудио
Идентификатор: 1
Формат: AC-3
Формат/Информация: Audio Coding 3
Расширение режима: CM (complete main)
Параметр Endianness формата: Big
Идентификатор кодека: 2000
Продолжительность: 1 ч. 50 м.
Вид битрейта: Постоянный
Битрейт: 192 Кбит/сек
Каналы: 2 канала
Расположение каналов: Front: L R
Частота: 48,0 КГц
Битовая глубина: 16 бит
Метод сжатия: С потерями
Размер потока: 151 Мбайт (10%)
Выравнивание: Разделение по промежуткам
Продолжительность промежутка: 42 мс. (1,00 видеокадр)
Время предзагрузки промежутка: 500 мс.


Релиз:
Ссылка Джонни-Гитара / Johnny Guitar (HDRip) скачать торрент Вестерн - Торрент-Трекер находится под похожими раздачами Download Torrent
Джонни-Гитара / Johnny Guitar (HDRip) скачать торрент Вестерн - Торрент-Трекер
Скриншоты Джонни-Гитара / Johnny Guitar

скачать торрент, Игры на PC, Download Torrent, мультфильм, фильм, hdrip, Вестерн
Добавил: SxS | Просмотров: 6 | Рейтинг: 0.0/0
Добавлять комментарии могут только зарегистрированные пользователи.
[ Регистрация | Вход ]
Ужасы [96]
Horrors
Фантастика [82]
Fantastic
Боевик [94]
Action
Триллер [100]
Thriller
Криминал [3]
Crime
Военный [2]
Military
Вестерн [11]
Western
Документальный [6]
Documentary
Биография [3]
Biography
Драма [244]
Drama
Мелодрама [23]
Melodrama
Комедия [71]
Comedy
Мюзикл [5]
Musical
Приключения [13]
Adventure
Пародия [6]
Parody
Мультфильмы [22]
Cartoons
Мультсериал [1]
Animated series
Аниме [2]
Anime
Форма входа
Поиск
Лучшие раздачи