Приветствую Вас Гость

Total War: ARENA
Торрент-Трекер » HDRip » Триллер

Виселица / Hangman (HDRip) скачать торрент

[ Раздача закрыта по требованию правообладателя ]



Виселица / Hangman (HDRip) скачать торрент Триллер - Торрент-Трекер

Информация о фильме
Название: Виселица
Оригинальное название: Hangman
Год выхода: 2017
Жанр: Триллер, криминал, детектив
Режиссер: Джонни Мартин
В ролях: Аль Пачино, Карл Урбан, Бриттани Сноу, Сара Шахи, Джо Андерсон, Жермен Риверс, Майкл Пападжон, Чили Рамос, Одесса Рэй, Стив Култер

О фильме: На месте преступления коп и журналистка, пишущая о работе полиции, видят на столе вырезанные ножом цифры, которые соответствуют двум номерам полицейских жетонов: самого копа и другого полицейского, который уже вышел на пенсию. Логично, что его приглашают к расследованию и троица идёт по следам маньяка-убийцы, совершающего свои преступления каждые 24 часа. Все четверо связаны между собой разными жизненными обстоятельствами, но только один из них не ищет в преступлениях логики и здравого смысла, потому что понять это невозможно.

Страна: США
Студия: Patriot Pictures, Cheyenne Enterprises
Продолжительность: 01:38:33
Перевод: Профессиональный (многоголосый, закадровый) | HDRezka Studio
Субтитры: Нет

Файл
Кодек: XviD
Качество: HDRip
Видео: 720x304 (2.37:1), 23.976 fps, XviD build 73 ~855 kbps avg, 0.16 bit/pixel
Звук: 48 kHz, MPEG Layer 3, 2 ch, ~128.00 kbps avg

MediaInfo
General
Complete name: Hangman.2017.HDRip.ot.Portablius.avi
Format: AVI
Format/Info: Audio Video Interleave
File size: 700 MiB
Duration: 1 h 38 min
Overall bit rate: 993 kb/s
Writing application: VirtualDubMod 1.5.10.3 | www.virtualdub-fr.org || (build 2550/release)
Writing library: VirtualDubMod build 2550/release

Video
ID: 0
Format: MPEG-4 Visual
Format profile: Advanced Simple@L5
Format settings, BVOP: 1
Format settings, QPel: No
Format settings, GMC: No warppoints
Format settings, Matrix: Custom
Codec ID: XVID
Codec ID/Hint: XviD
Duration: 1 h 38 min
Bit rate: 856 kb/s
Width: 720 pixels
Height: 304 pixels
Display aspect ratio: 2.35:1
Frame rate: 23.976 (24000/1001) FPS
Color space: YUV
Chroma subsampling: 4:2:0
Bit depth: 8 bits
Scan type: Progressive
Compression mode: Lossy
Bits/(Pixel*Frame): 0.163
Stream size: 603 MiB (86%)
Writing library: XviD 73

Audio
ID: 1
Format: MPEG Audio
Format version: Version 1
Format profile: Layer 3
Codec ID: 55
Codec ID/Hint: MP3
Duration: 1 h 38 min
Bit rate mode: Constant
Bit rate: 128 kb/s
Channel(s): 2 channels
Sampling rate: 48.0 kHz
Compression mode: Lossy
Stream size: 90.2 MiB (13%)
Alignment: Aligned on interleaves
Interleave, duration: 42 ms (1.00 video frame)
Interleave, preload duratio: 504 ms
Writing library: LAME3.99r
Encoding settings: -m s -V 4 -q 2 -lowpass 17 -b 1
Ссылка Виселица / Hangman (HDRip) скачать торрент Триллер - Торрент-Трекер находится под похожими раздачами Download Torrent
Виселица / Hangman (HDRip) скачать торрент Триллер - Торрент-Трекер
Скриншоты Виселица / Hangman

скачать торрент, Игры на PC, Download Torrent, мультфильм, фильм, hdrip, Триллер
Добавил: SxS | Просмотров: 25 | Загрузок: 1 | Рейтинг: 0.0/0
Добавлять комментарии могут только зарегистрированные пользователи.
[ Регистрация | Вход ]
Ужасы [74]
Horrors
Фантастика [69]
Fantastic
Боевик [71]
Action
Триллер [63]
Thriller
Криминал [2]
Crime
Военный [2]
Military
Вестерн [9]
Western
Документальный [6]
Documentary
Биография [2]
Biography
Драма [208]
Drama
Мелодрама [18]
Melodrama
Комедия [58]
Comedy
Мюзикл [5]
Musical
Приключения [8]
Adventure
Пародия [5]
Parody
Мультфильмы [18]
Cartoons
Мультсериал [1]
Animated series
Аниме [2]
Anime
Форма входа
Поиск
Лучшие раздачи