Приветствую Вас Гость

World of Warships [SOI] RU+CIS
Торрент-Трекер » HDRip » Триллер

Последний свидетель / The Last Witness (HDRip) скачать торрент

[ ]



Последний свидетель / The Last Witness (HDRip) скачать торрент Триллер - Торрент-Трекер

Информация о фильме
Название: Последний свидетель
Оригинальное название: The Last Witness
Год выхода: 2018
Жанр: Триллер, история
Режиссер: Пётр Шкопяк
В ролях: Алекс Петтифер, Роберт Венцкевич, Талула Райли, Майкл Гэмбон, Уилл Торп, Генри Ллойд-Хьюз, Петр Страмовски, Гвилим Ли, Сэм Маркс, Крис Уокер

О фильме: Послевоенный Бристоль. Журналист Стивен Андервуд мечтает о славе и теме, которая, наконец, даст ход его карьере. Этот шанс появляется, когда он случайно попадает на след самоубийства польского солдата, находящегося в местном лагере для беженцев. Следуя журналистскому инстинкту, Стивен доходит до информации о том, что на самом деле случилось в Катыни. Её раскрытие повлияет на судьбы всей послевоенной Европы...

Страна: Великобритания, Польша
Студия: Vicarious Productions Limited, Vicarious Productions, Dignity Film Finance
Продолжительность: 01:33:04
Перевод: Профессиональный (многоголосый, закадровый) | Jaskier
Субтитры: Нет

Файл
Кодек: XviD
Качество: HDRip
Видео: 720x304 (2.37:1), 24.000 fps, XviD build 73 ~977 kbps avg, 0.19 bit/pixel
Звук: 48 kHz, MPEG Layer 3, 2 ch, ~128.00 kbps avg

MediaInfo
General
Complete name: The.Last.Witness.2018.HDRip.ot.Portablius.avi
Format: AVI
Format/Info: Audio Video Interleave
File size: 742 MiB
Duration: 1 h 33 min
Overall bit rate: 1 115 kb/s
Writing application: VirtualDubMod 1.5.10.3 | www.virtualdub-fr.org || (build 2550/release)
Writing library: VirtualDubMod build 2550/release

Video
ID: 0
Format: MPEG-4 Visual
Format profile: Advanced Simple@L5
Format settings, BVOP: 1
Format settings, QPel: No
Format settings, GMC: No warppoints
Format settings, Matrix: Custom
Codec ID: XVID
Codec ID/Hint: XviD
Duration: 1 h 33 min
Bit rate: 977 kb/s
Width: 720 pixels
Height: 304 pixels
Display aspect ratio: 2.35:1
Frame rate: 24.000 FPS
Color space: YUV
Chroma subsampling: 4:2:0
Bit depth: 8 bits
Scan type: Progressive
Compression mode: Lossy
Bits/(Pixel*Frame): 0.186
Stream size: 651 MiB (88%)
Writing library: XviD 73

Audio
ID: 1
Format: MPEG Audio
Format version: Version 1
Format profile: Layer 3
Mode: Joint stereo
Mode extension: MS Stereo
Codec ID: 55
Codec ID/Hint: MP3
Duration: 1 h 33 min
Bit rate mode: Constant
Bit rate: 128 kb/s
Channel(s): 2 channels
Sampling rate: 48.0 kHz
Compression mode: Lossy
Stream size: 85.2 MiB (11%)
Alignment: Aligned on interleaves
Interleave, duration: 42 ms (1.00 video frame)
Interleave, preload duratio: 504
Ссылка Последний свидетель / The Last Witness (HDRip) скачать торрент Триллер - Торрент-Трекер находится под похожими раздачами Download Torrent
Последний свидетель / The Last Witness (HDRip) скачать торрент Триллер - Торрент-Трекер
Скриншоты Последний свидетель / The Last Witness

скачать торрент, Игры на PC, Download Torrent, мультфильм, фильм, hdrip, Триллер
Добавил: SxS | Просмотров: 27 | Рейтинг: 0.0/0
Добавлять комментарии могут только зарегистрированные пользователи.
[ Регистрация | Вход ]
Ужасы [101]
Horrors
Фантастика [87]
Fantastic
Боевик [101]
Action
Триллер [104]
Thriller
Криминал [3]
Crime
Военный [2]
Military
Вестерн [11]
Western
Документальный [6]
Documentary
Биография [4]
Biography
Драма [264]
Drama
Мелодрама [24]
Melodrama
Комедия [77]
Comedy
Мюзикл [7]
Musical
Приключения [13]
Adventure
Пародия [6]
Parody
Мультфильмы [23]
Cartoons
Мультсериал [1]
Animated series
Аниме [2]
Anime
Форма входа
Поиск
Лучшие раздачи