Приветствую Вас Гость

Total War: ARENA
Торрент-Трекер » HDRip » Триллер

Похищение / Secuestro (HDRip) скачать торрент

[ Раздача закрыта по требованию правообладателя ]



Похищение / Secuestro (HDRip) скачать торрент Триллер - Торрент-Трекер

Информация о фильме
Название:Похищение
Оригинальное название:Secuestro / Boy missing
Год выхода:2016
Жанр:Триллер
Режиссер:Мар Таргарона
В ролях:Бланка Портильо, Антонио Дечент, Висенте Ромеро, Марк Доменеч, Наусикая Боннин, Андрес Эррера, Хосе Коронадо, Макарена Гомес, Пако Мансанедо, Сержи Субира

О фильме:Младшеклассника Виктора находят на лесной дороге и доставляют в полицию. Мальчик дезориентирован и не говорит. Его мать — известный престижный адвокат Патрисия де Лукас, и она сразу же сообщает о случившемся репортёрам. Придя в себя, Виктор рассказывает, что возле школы на него напал мужчина, и составляет фоторобот подозреваемого. Оказывается, что тот уже сидел в тюрьме, его задерживают, но отпускают за недостаточностью улик. Тогда Патрисия берет правосудие в свои руки.

Страна:Испания
Студия:Lanube Peliculas, Rodar y Rodar Cine y Television
Продолжительность:01:45:24
Перевод:Любительский (одноголосый, закадровый) [BadBajo]
Субтитры:Нет

Файл
Кодек:XviD
Качество:HDRip
Видео:720x304 (2.37:1), 24.000 fps, XviD build 73 ~852 kbps avg, 0.16 bit/pixel
Звук:48 kHz, MPEG Layer 3, 2 ch, ~128.00 kbps avg

MediaInfo
General
Complete name : Secuestro.2016.HDRip.ot.Portablius.avi
Format : AVI
Format/Info : Audio Video Interleave
File size : 746 MiB
Duration : 1 h 45 min
Overall bit rate : 990 kb/s
Writing application : VirtualDubMod 1.5.10.3 | www.virtualdub-fr.org || (build 2550/release)
Writing library : VirtualDubMod build 2550/release

Video
ID : 0
Format : MPEG-4 Visual
Format profile : Advanced Simple@L5
Format settings, BVOP : 1
Format settings, QPel : No
Format settings, GMC : No warppoints
Format settings, Matrix : Custom
Codec ID : XVID
Codec ID/Hint : XviD
Duration : 1 h 45 min
Bit rate : 853 kb/s
Width : 720 pixels
Height : 304 pixels
Display aspect ratio : 2.35:1
Frame rate : 24.000 FPS
Color space : YUV
Chroma subsampling : 4:2:0
Bit depth : 8 bits
Scan type : Progressive
Compression mode : Lossy
Bits/(Pixel*Frame) : 0.162
Stream size : 642 MiB (86%)
Writing library : XviD 73

Audio
ID : 1
Format : MPEG Audio
Format version : Version 1
Format profile : Layer 3
Codec ID : 55
Codec ID/Hint : MP3
Duration : 1 h 45 min
Bit rate mode : Constant
Bit rate : 128 kb/s
Channel(s) : 2 channels
Sampling rate : 48.0 kHz
Compression mode : Lossy
Stream size : 96.4 MiB (13%)
Alignment : Aligned on interleaves
Interleave, duration : 42 ms (1.00 video frame)
Interleave, preload duratio : 504 ms
Writing library : LAME3.99r
Encoding settings : -m s -V 4 -q 2 -lowpass 17 -b 128


ЗалилEvgen Portable
Ссылка Похищение / Secuestro (HDRip) скачать торрент Триллер - Торрент-Трекер находится под похожими раздачами Download Torrent
Похищение / Secuestro (HDRip) скачать торрент Триллер - Торрент-Трекер
Скриншоты Похищение / Secuestro

скачать торрент, Игры на PC, Download Torrent, мультфильм, фильм, hdrip, Триллер
Добавил: SxS | Просмотров: 27 | Рейтинг: 0.0/0
Добавлять комментарии могут только зарегистрированные пользователи.
[ Регистрация | Вход ]
Ужасы [74]
Horrors
Фантастика [69]
Fantastic
Боевик [71]
Action
Триллер [63]
Thriller
Криминал [2]
Crime
Военный [2]
Military
Вестерн [9]
Western
Документальный [6]
Documentary
Биография [2]
Biography
Драма [208]
Drama
Мелодрама [18]
Melodrama
Комедия [58]
Comedy
Мюзикл [5]
Musical
Приключения [8]
Adventure
Пародия [5]
Parody
Мультфильмы [18]
Cartoons
Мультсериал [1]
Animated series
Аниме [2]
Anime
Форма входа
Поиск
Лучшие раздачи