Приветствую Вас Гость

Total War: ARENA
Торрент-Трекер » HDRip » Триллер

Опасная игра Слоун / Мисс Слоун / Miss Sloane (HDRip) скачать торрент

[ Раздача закрыта по требованию правообладателя ]



Опасная игра Слоун / Мисс Слоун / Miss Sloane (HDRip) скачать торрент Триллер - Торрент-Трекер

Информация о фильме
Название: Опасная игра Слоун / Мисс Слоун
Оригинальное название: Miss Sloane
Год выхода: 2016
Жанр: триллер, драма
Режиссер: Джон Мэдден
В ролях: Джессика Честейн (Madeline Elizabeth Sloane), Дэвид Уилсон Барнс (Daniel Posner), Джон Литгоу (Senator Ronald Sperling), Элисон Пилл (Jane Molloy), Аарон Хейл (Spencer), Али Мукаддам (Ross), Майкл Стулбарг (Pat Connors), Дуглас Смит (Alex), Грэйс Линн Кунг (Lauren), Ной Роббинс (Franklin), Чак Шамата (Bill Sanford), Сэм Уотерстон (George Dupont)

О фильме: Победитель всегда на шаг впереди, и Элизабет, как никто другой, знает об этом. Ее главное оружие против своих оппонентов: непредсказуемость и манипуляция. Благодаря своим навыкам, Слоун быстро взлетает на верхушку политической карьеры. Кто-то в восторге от ее работы, а кто-то сжимает кулаки ярости...
Дело принимает совсем другие обороты, когда игра Слоун начинается против тех, кто управляет оружием в стране. Перейдя границы условно безопасной политики, она врывается на поле боя, где властвуют не только слова и дебаты. Здесь есть оружие, жестокость и смерть неугодных системе...

Страна: Франция, США
Студия: Archery Pictures, FilmNation Entertainment, Transfilm
Продолжительность: 02:12:11
Перевод: Профессиональный (дублированный) iTunes
Субтитры: Нет

Файл
Кодек: XviD
Качество: HDRip
Видео: 688x288 (2.39:1), 23.976 fps, XviD build 73 ~651 kbps avg, 0.14 bit/pixel
Звук: 48 kHz, MPEG Layer 3, 2 ch, ~128.00 kbps avg

MediaInfo
General
Complete name: Miss.Sloane.2016.HDRip.ot.Portablius.avi
Format: AVI
Format/Info: Audio Video Interleave
File size: 746 MiB
Duration: 2 h 12 min
Overall bit rate: 789 kb/s
Writing application: VirtualDubMod 1.5.10.3 | www.virtualdub-fr.org || (build 2550/release)
Writing library: VirtualDubMod build 2550/release

Video
ID: 0
Format: MPEG-4 Visual
Format profile: Advanced Simple@L5
Format settings, BVOP: 1
Format settings, QPel: No
Format settings, GMC: No warppoints
Format settings, Matrix: Custom
Codec ID: XVID
Codec ID/Hint: XviD
Duration: 2 h 12 min
Bit rate: 651 kb/s
Width: 688 pixels
Height: 288 pixels
Display aspect ratio: 2.40:1
Frame rate: 23.976 (24000/1001) FPS
Color space: YUV
Chroma subsampling: 4:2:0
Bit depth: 8 bits
Scan type: Progressive
Compression mode: Lossy
Bits/(Pixel*Frame): 0.137
Stream size: 616 MiB (83%)
Writing library: XviD 73

Audio
ID: 1
Format: MPEG Audio
Format version: Version 1
Format profile: Layer 3
Codec ID: 55
Codec ID/Hint: MP3
Duration: 2 h 12 min
Bit rate mode: Constant
Bit rate: 128 kb/s
Channel(s): 2 channels
Sampling rate: 48.0 kHz
Compression mode: Lossy
Stream size: 121 MiB (16%)
Alignment: Aligned on interleaves
Interleave, duration: 42 ms (1.00 video frame)
Interleave, preload duratio: 504 ms
Writing library: LAME3.99r
Encoding settings: -m s -V 4 -q 2 -lowpass 17 -b 1
Ссылка Опасная игра Слоун / Мисс Слоун / Miss Sloane (HDRip) скачать торрент Триллер - Торрент-Трекер находится под похожими раздачами Download Torrent
Опасная игра Слоун / Мисс Слоун / Miss Sloane (HDRip) скачать торрент Триллер - Торрент-Трекер
Скриншоты Опасная игра Слоун / Мисс Слоун / Miss Sloane

скачать торрент, Игры на PC, Download Torrent, мультфильм, фильм, hdrip, Триллер
Добавил: SxS | Просмотров: 21 | Рейтинг: 0.0/0
Добавлять комментарии могут только зарегистрированные пользователи.
[ Регистрация | Вход ]
Ужасы [80]
Horrors
Фантастика [75]
Fantastic
Боевик [78]
Action
Триллер [76]
Thriller
Криминал [2]
Crime
Военный [2]
Military
Вестерн [9]
Western
Документальный [6]
Documentary
Биография [3]
Biography
Драма [228]
Drama
Мелодрама [20]
Melodrama
Комедия [66]
Comedy
Мюзикл [5]
Musical
Приключения [11]
Adventure
Пародия [5]
Parody
Мультфильмы [21]
Cartoons
Мультсериал [1]
Animated series
Аниме [2]
Anime
Форма входа
Поиск
Лучшие раздачи