Приветствую Вас Гость

World of Warships [SOI] RU+CIS
Торрент-Трекер » HDRip » Триллер

Малолетка / Jailbait (HDRip) скачать торрент

[ ]



Малолетка / Jailbait (HDRip) скачать торрент Триллер - Торрент-Трекер

Информация о фильме
Название: Малолетка
Оригинальное название: Jailbait
Год выхода: 2013
Жанр: Триллер, эротика, драма
Режиссер: Джаред Кон
В ролях: Саманта Кардона, Сара Малакул Лэйн, Эрин О’Брайэн, Дженнифер Джейкобс, Ребекка Роули, Николь Александра Шипли, Баррет Перлман, Тэмми Клейн, Диана Дейнджер, Хирам А. Мюррэй

О фильме: После непредумышленного убийства отчима, который пытался изнасиловать несовершеннолетнюю Анну, она попадает в колонию для несовершеннолетних, на 4 года. Там, пытаясь отстоять свою независимость, она подвергается террору со стороны других заключенных и начальника тюрьмы.

Страна: США
Студия: Asylum, The Broken Films
Продолжительность: 01:29:36
Перевод: Любительский (одноголосый, закадровый) [Xixidok]
Субтитры: Нет

Файл
Кодек: XviD
Качество: HDRip
Видео: 688x384 (1.79:1), 23.976 fps, XviD build 73 ~1024 kbps avg, 0.16 bit/pixel
Звук: 48 kHz, MPEG Layer 3, 2 ch, ~128.00 kbps avg

MediaInfo
General
Complete name: Jailbait.2013.HDRip.ot.Portablius.avi
Format: AVI
Format/Info: Audio Video Interleave
File size: 745 MiB
Duration: 1 h 29 min
Overall bit rate: 1 162 kb/s
Writing application: VirtualDubMod 1.5.10.3 | www.virtualdub-fr.org || (build 2550/release)
Writing library: VirtualDubMod build 2550/release

Video
ID: 0
Format: MPEG-4 Visual
Format profile: Advanced Simple@L5
Format settings, BVOP: 1
Format settings, QPel: No
Format settings, GMC: No warppoints
Format settings, Matrix: Custom
Codec ID: XVID
Codec ID/Hint: XviD
Duration: 1 h 29 min
Bit rate: 1 025 kb/s
Width: 688 pixels
Height: 384 pixels
Display aspect ratio: 16:9
Frame rate: 23.976 (24000/1001) FPS
Color space: YUV
Chroma subsampling: 4:2:0
Bit depth: 8 bits
Scan type: Progressive
Compression mode: Lossy
Bits/(Pixel*Frame): 0.162
Stream size: 657 MiB (88%)
Writing library: XviD 73

Audio
ID: 1
Format: MPEG Audio
Format version: Version 1
Format profile: Layer 3
Codec ID: 55
Codec ID/Hint: MP3
Duration: 1 h 29 min
Bit rate mode: Constant
Bit rate: 128 kb/s
Channel(s): 2 channels
Sampling rate: 48.0 kHz
Compression mode: Lossy
Stream size: 82.0 MiB (11%)
Alignment: Aligned on interleaves
Interleave, duration: 42 ms (1.00 video frame)
Interleave, preload duratio: 504 ms
Writing library: LAME3.99r
Encoding settings: -m s -V 4 -q 2 -lowpass 17 -b 1
Ссылка Малолетка / Jailbait (HDRip) скачать торрент Триллер - Торрент-Трекер находится под похожими раздачами Download Torrent
Малолетка / Jailbait (HDRip) скачать торрент Триллер - Торрент-Трекер
Скриншоты Малолетка / Jailbait

скачать торрент, Игры на PC, Download Torrent, мультфильм, фильм, hdrip, Триллер
Добавил: SxS | Просмотров: 10 | Рейтинг: 0.0/0
Добавлять комментарии могут только зарегистрированные пользователи.
[ Регистрация | Вход ]
Ужасы [96]
Horrors
Фантастика [82]
Fantastic
Боевик [94]
Action
Триллер [100]
Thriller
Криминал [3]
Crime
Военный [2]
Military
Вестерн [11]
Western
Документальный [6]
Documentary
Биография [3]
Biography
Драма [244]
Drama
Мелодрама [23]
Melodrama
Комедия [71]
Comedy
Мюзикл [5]
Musical
Приключения [13]
Adventure
Пародия [6]
Parody
Мультфильмы [22]
Cartoons
Мультсериал [1]
Animated series
Аниме [2]
Anime
Форма входа
Поиск
Лучшие раздачи