Приветствую Вас Гость

Total War: ARENA
Торрент-Трекер » HDRip » Триллер

Яма / The Hole (HDRip) скачать торрент

[ Раздача закрыта по требованию правообладателя ]



Яма / The Hole (HDRip) скачать торрент Триллер - Торрент-Трекер

Информация о фильме
Название: Яма
Оригинальное название: The Hole
Год выхода: 2001
Жанр: триллер, драма, детектив
Режиссер: Ник Хэмм
В ролях: Тора Бёрч (Liz), Десмонд Хэррингтон (Mike), Дэниэл Броклбэнк (Martin), Лоуренс Фокс (Geoff), Кира Найтли (Frankie), Эмбет Дэвидц (Dr. Philippa Horwood), Стивен Вэддингтон (DCS Tom Howard), Эмма Гриффитс Малин (Daisy), Джемма Пауэлл (Minnie), Джемма Крэвен (Mrs. Dunn), Анастасия Хилл (Gillian), Келли Хантер (DI Chapman)

О фильме: Четверо студентов престижной английской школы решили устроить особенную вечеринку и выбрали для этого бункер времен войны. Бросив вызов родителям, школе, обыденной жизни и самим себе, они спускаются в зловещие катакомбы, чтобы подвергнуть свой разум, свои чувства шокирующим приключениям.

Страна: Великобритания
Студия: Canal+ [fr], Cowboy Films, Film Council, Granada Film Productions
Продолжительность: 01:42:18
Перевод: Профессиональный (многоголосый, закадровый) CP-Digital
Субтитры: Нет

Файл
Кодек: XviD
Качество: HDRip
Видео: 656x368 (1.78:1), 23.976 fps, XviD build 73 ~819 kbps avg, 0.14 bit/pixel
Звук: 48 kHz, MPEG Layer 3, 2 ch, ~128.00 kbps avg

MediaInfo
General
Complete name: The.Hole.2001.HDRip.ot.Portablius.avi
Format: AVI
Format/Info: Audio Video Interleave
File size: 700 MiB
Duration: 1 h 42 min
Overall bit rate: 957 kb/s
Writing application: VirtualDubMod 1.5.10.3 | www.virtualdub-fr.org || (build 2550/release)
Writing library: VirtualDubMod build 2550/release

Video
ID: 0
Format: MPEG-4 Visual
Format profile: Advanced Simple@L5
Format settings, BVOP: 1
Format settings, QPel: No
Format settings, GMC: No warppoints
Format settings, Matrix: Custom
Codec ID: XVID
Codec ID/Hint: XviD
Duration: 1 h 42 min
Bit rate: 820 kb/s
Width: 656 pixels
Height: 368 pixels
Display aspect ratio: 16:9
Frame rate: 23.976 (24000/1001) FPS
Color space: YUV
Chroma subsampling: 4:2:0
Bit depth: 8 bits
Scan type: Progressive
Compression mode: Lossy
Bits/(Pixel*Frame): 0.142
Stream size: 600 MiB (86%)
Writing library: XviD 73

Audio
ID: 1
Format: MPEG Audio
Format version: Version 1
Format profile: Layer 3
Codec ID: 55
Codec ID/Hint: MP3
Duration: 1 h 42 min
Bit rate mode: Constant
Bit rate: 128 kb/s
Channel(s): 2 channels
Sampling rate: 48.0 kHz
Compression mode: Lossy
Stream size: 93.7 MiB (13%)
Alignment: Aligned on interleaves
Interleave, duration: 42 ms (1.00 video frame)
Interleave, preload duratio: 504 ms
Writing library: LAME3.99r
Encoding settings: -m s -V 4 -q 2 -lowpass 17 -b 1
Ссылка Яма / The Hole (HDRip) скачать торрент Триллер - Торрент-Трекер находится под похожими раздачами Download Torrent
Яма / The Hole (HDRip) скачать торрент Триллер - Торрент-Трекер
Скриншоты Яма / The Hole

скачать торрент, Игры на PC, Download Torrent, мультфильм, фильм, hdrip, Триллер
Добавил: SxS | Просмотров: 18 | Рейтинг: 0.0/0
Добавлять комментарии могут только зарегистрированные пользователи.
[ Регистрация | Вход ]
Ужасы [80]
Horrors
Фантастика [75]
Fantastic
Боевик [78]
Action
Триллер [76]
Thriller
Криминал [2]
Crime
Военный [2]
Military
Вестерн [9]
Western
Документальный [6]
Documentary
Биография [3]
Biography
Драма [228]
Drama
Мелодрама [20]
Melodrama
Комедия [66]
Comedy
Мюзикл [5]
Musical
Приключения [11]
Adventure
Пародия [5]
Parody
Мультфильмы [21]
Cartoons
Мультсериал [1]
Animated series
Аниме [2]
Anime
Форма входа
Поиск
Лучшие раздачи