Приветствую Вас Гость

Total War: ARENA
Торрент-Трекер » HDRip » Триллер

Гамлет / Hamlet (HDRip) скачать торрент

[ Раздача закрыта по требованию правообладателя ]



Гамлет / Hamlet (HDRip) скачать торрент Триллер - Торрент-Трекер

Информация о фильме
Название:Гамлет
Оригинальное название:Hamlet
Год выхода:2000
Жанр:Триллер, драма, мелодрама, экранизация
Режиссер:Майкл Алмерейда
В ролях:Итэн Хоук, Кайл МакЛахлан, Дайан Венора, Сэм Шепард, Билл Мюррей, Лив Шрайбер, Джулия Стайлз, Паула Малкомсон, Стив Зан, Джеффри Райт, Кейси Аффлек, Тим Блэйк Нельсон, Карл Джиари, Пол Бартел (I), Ларри Фесенден, Келли Себастьян

О фильме:
Действие этого фильма, снятого по мотивам бессмертной драмы Шекспира, разворачивается в современном Нью-Йорке. Гамлет предстает в роли режиссера, которому после смерти отца с трудом удается справиться с управлением компанией «Датская корпорация». После трансцендентного опыта общения с призраком своего отца, он погружается в пучину сомнений, нерешительности и страданий…

Страна:США
Студия:double A Films
Продолжительность:01:51:43
Перевод:Профессиональный многоголосый

Файл
Кодек:XviD
Качество:HDRip
Видео:720x390, 1597 Kбит/с, 23,976 кадра/сек
Звук:AC3, 6 ch, 384 Кбит/с
Субтитры:Нет

MI
Формат : AVI
Формат/Информация : Audio Video Interleave
Размер файла : 1,55 Гбайт
Продолжительность : 1 ч. 51 м.
Общий поток : 1990 Кбит/сек
Программа кодирования : VirtualDubMod 1.5.10.3 (build 2550/release)
Библиотека кодирования : VirtualDubMod build 2550/release

Видео
Идентификатор : 0
Формат : MPEG-4 Visual
Профиль формата : Simple@L5
Параметр BVOP формата : Нет
Параметр QPel формата : Нет
Параметр GMC формата : Без точки перехода
Параметр матрицы формата : Default (H.263)
Идентификатор кодека : XVID
Идентификатор кодека/Подсказка : XviD
Продолжительность : 1 ч. 51 м.
Битрейт : 1597 Кбит/сек
Ширина : 720 пикселей
Высота : 390 пикселей
Соотношение сторон : 1,85:1
Частота кадров : 23,976 кадра/сек
Цветовое пространство : YUV
Субдискретизация насыщенности : 4:2:0
Битовая глубина : 8 бит
Тип развёртки : Прогрессивная
Метод сжатия : С потерями
Бит/(Пиксели*Кадры) : 0.237
Размер потока : 1,25 Гбайт (80%)
Библиотека кодирования : Lavc57.107.100

Аудио
Идентификатор : 1
Формат : AC-3
Формат/Информация : Audio Coding 3
Расширение режима : CM (complete main)
Параметр Endianness формата : Big
Идентификатор кодека : 2000
Продолжительность : 1 ч. 51 м.
Вид битрейта : Постоянный
Битрейт : 384 Кбит/сек
Каналы : 6 каналов
Расположение каналов : Front: L C R, Side: L R, LFE
Частота : 48,0 КГц
Метод сжатия : С потерями
Размер потока : 307 Мбайт (19%)
Выравнивание : Разделение по промежуткам
Продолжительность промежутка : 42 мс. (1,00 видеокадр)
Время предзагрузки промежутка : 500 мс.

Залилuser7447
Ссылка Гамлет / Hamlet (HDRip) скачать торрент Триллер - Торрент-Трекер находится под похожими раздачами Download Torrent
Гамлет / Hamlet (HDRip) скачать торрент Триллер - Торрент-Трекер
Скриншоты Гамлет / Hamlet

скачать торрент, Игры на PC, Download Torrent, мультфильм, фильм, hdrip, Триллер
Добавил: SxS | Просмотров: 24 | Рейтинг: 5.0/1
Добавлять комментарии могут только зарегистрированные пользователи.
[ Регистрация | Вход ]
Ужасы [56]
Horrors
Фантастика [58]
Fantastic
Боевик [66]
Action
Триллер [54]
Thriller
Криминал [2]
Crime
Военный [2]
Military
Вестерн [7]
Western
Документальный [6]
Documentary
Биография [2]
Biography
Драма [188]
Drama
Мелодрама [12]
Melodrama
Комедия [50]
Comedy
Мюзикл [3]
Musical
Приключения [5]
Adventure
Пародия [3]
Parody
Мультфильмы [13]
Cartoons
Мультсериал [1]
Animated series
Аниме [2]
Anime
Форма входа
Поиск
Лучшие раздачи