Приветствую Вас Гость

World of Warships [SOI] RU+CIS
Торрент-Трекер » HDRip » Триллер

Дом терпимости / The Seasoning House (HDRip) скачать торрент

[ ]



Дом терпимости / The Seasoning House (HDRip) скачать торрент Триллер - Торрент-Трекер

Информация о фильме
Название: Дом терпимости
Оригинальное название: The Seasoning House
Год выхода: 2012
Жанр: Триллер, ужасы
Режиссер: Пол Хайет
В ролях: Рози Дэй, Дэвид Лемберг, Аманда Уосс, Шон Кронин, Кевин Ховарт, Томи Мэй, Emma Britton, Эмили Такер, Кэти Аллен, Томас Вортингтон, Шон Пертуи

О фильме: Фильм рассказывает о девушке Энджел, которая вынуждена работать в доме, поставляющем молодых проституток военнослужащим. Но вместо того, чтобы работать проституткой, она становится помощницей управляющего борделем Виктора. Днем в ее обязанности входит приводить проституток в порядок после того, как их неоднократно насилуют. А ночью она исследует дом со всеми его закоулками. Затем она знакомится с новенькой девочкой, и становится свидетельницей ее регулярного жестокого изнасилования. После чего в дом прибывают военные, которые похитили Энджел и убили всю ее семью, что подталкивает ее придумать план мести.

Страна: Великобритания
Продолжительность: 01:29:31
Перевод: Любительский (одноголосый, закадровый) den904
Субтитры: Нет

ПРИСУТСТВУЕТ НЕНОРМАТИВНАЯ ЛЕКСИКА!

Файл
Кодек: XviD
Качество: HDRip
Видео: 720x304 (2.37:1), 25 fps, XviD build 73 ~1019 kbps avg, 0.19 bit/pixel
Звук: 48 kHz, MPEG Layer 3, 2 ch, ~128.00 kbps avg

MediaInfo
General
Complete name: The.Seasoning.House.2012.HDRip.ot.Portablius.avi
Format: AVI
Format/Info: Audio Video Interleave
File size: 741 MiB
Duration: 1 h 29 min
Overall bit rate: 1 157 kb/s
Writing application: VirtualDubMod 1.5.10.3 | www.virtualdub-fr.org || (build 2550/release)
Writing library: VirtualDubMod build 2550/release

Video
ID: 0
Format: MPEG-4 Visual
Format profile: Advanced Simple@L5
Format settings, BVOP: 1
Format settings, QPel: No
Format settings, GMC: No warppoints
Format settings, Matrix: Custom
Codec ID: XVID
Codec ID/Hint: XviD
Duration: 1 h 29 min
Bit rate: 1 019 kb/s
Width: 720 pixels
Height: 304 pixels
Display aspect ratio: 2.35:1
Frame rate: 25.000 FPS
Color space: YUV
Chroma subsampling: 4:2:0
Bit depth: 8 bits
Scan type: Progressive
Compression mode: Lossy
Bits/(Pixel*Frame): 0.186
Stream size: 653 MiB (88%)
Writing library: XviD 73

Audio
ID: 1
Format: MPEG Audio
Format version: Version 1
Format profile: Layer 3
Codec ID: 55
Codec ID/Hint: MP3
Duration: 1 h 29 min
Bit rate mode: Constant
Bit rate: 128 kb/s
Channel(s): 2 channels
Sampling rate: 48.0 kHz
Compression mode: Lossy
Stream size: 82.0 MiB (11%)
Alignment: Aligned on interleaves
Interleave, duration: 40 ms (1.00 video frame)
Interleave, preload duratio: 504 ms
Writing library: LAME3.99r
Encoding settings: -m s -V 4 -q 2 -lowpass 17 -b 1
Ссылка Дом терпимости / The Seasoning House (HDRip) скачать торрент Триллер - Торрент-Трекер находится под похожими раздачами Download Torrent
Дом терпимости / The Seasoning House (HDRip) скачать торрент Триллер - Торрент-Трекер
Скриншоты Дом терпимости / The Seasoning House

скачать торрент, Игры на PC, Download Torrent, мультфильм, фильм, hdrip, Триллер
Добавил: SxS | Просмотров: 10 | Рейтинг: 0.0/0
Добавлять комментарии могут только зарегистрированные пользователи.
[ Регистрация | Вход ]
Ужасы [96]
Horrors
Фантастика [82]
Fantastic
Боевик [94]
Action
Триллер [100]
Thriller
Криминал [3]
Crime
Военный [2]
Military
Вестерн [11]
Western
Документальный [6]
Documentary
Биография [3]
Biography
Драма [244]
Drama
Мелодрама [23]
Melodrama
Комедия [71]
Comedy
Мюзикл [5]
Musical
Приключения [13]
Adventure
Пародия [6]
Parody
Мультфильмы [22]
Cartoons
Мультсериал [1]
Animated series
Аниме [2]
Anime
Форма входа
Поиск
Лучшие раздачи