Приветствую Вас Гость

World of Warships [SOI] RU+CIS
Торрент-Трекер » HDRip » Триллер

Дневник пастыря / First Reformed (HDRip) скачать торрент

[ ]



Дневник пастыря / First Reformed (HDRip) скачать торрент Триллер - Торрент-Трекер

Информация о фильме
Название: Дневник пастыря
Оригинальное название: First Reformed
Год выхода: 2017
Жанр: Триллер, драма
Режиссер: Пол Шредер
В ролях: Аманда Сайфред, Итэн Хоук, Седрик «Развлекатель», Виктория Хилл, Майкл Гэстон, Филип Эттинджер, Ван Хэнсис, Кристина Алабадо, Билл Хоаг, Иланна Уайт.

О фильме: Преподобный Толлер, страдающий от потери сына в Ираке и последовавшего развода, ищет утешения под сводами церкви и в алкоголе. Молодая прихожанка Мэри обращается к нему с просьбой поговорить с её мужем, экологом-активистом. А когда тот кончает жизнь самоубийством, Толлер никак не может выкинуть из головы беседу с ним и начинает читать в интернете про загрязнение окружающей среды.

Страна: США
Студия: Arclight Films, Fibonacci Films...
Продолжительность: 01:53:13
Перевод: Дубляж [iTunes]
Субтитры: Русские, форсированные (стилизованные, на надписи и прочее) - вшитые

Файл
Кодек: XviD
Качество: HDRip
Видео: 640x480 (1.33:1), 23.976 fps, XviD build 73 ~700 kbps avg, 0.10 bit/pixel
Звук: 48 kHz, MPEG Layer 3, 2 ch, ~128.00 kbps avg

MediaInfo
General
Complete name: First.Reformed.2017.HDRip.ot.Portablius.avi
Format: AVI
Format/Info: Audio Video Interleave
File size: 679 MiB
Duration: 1 h 53 min
Overall bit rate: 838 kb/s
Writing application: VirtualDubMod 1.5.10.3 | www.virtualdub-fr.org || (build 2550/release)
Writing library: VirtualDubMod build 2550/release

Video
ID: 0
Format: MPEG-4 Visual
Format profile: Advanced Simple@L5
Format settings, BVOP: 1
Format settings, QPel: No
Format settings, GMC: No warppoints
Format settings, Matrix: Custom
Codec ID: XVID
Codec ID/Hint: XviD
Duration: 1 h 53 min
Bit rate: 701 kb/s
Width: 640 pixels
Height: 480 pixels
Display aspect ratio: 4:3
Frame rate: 23.976 (24000/1001) FPS
Color space: YUV
Chroma subsampling: 4:2:0
Bit depth: 8 bits
Scan type: Progressive
Compression mode: Lossy
Bits/(Pixel*Frame): 0.095
Stream size: 567 MiB (84%)
Writing library: XviD 73

Audio
ID: 1
Format: MPEG Audio
Format version: Version 1
Format profile: Layer 3
Codec ID: 55
Codec ID/Hint: MP3
Duration: 1 h 53 min
Bit rate mode: Constant
Bit rate: 128 kb/s
Channel(s): 2 channels
Sampling rate: 48.0 kHz
Compression mode: Lossy
Stream size: 104 MiB (15%)
Alignment: Aligned on interleaves
Interleave, duration: 42 ms (1.00 video frame)
Interleave, preload duratio: 504 ms
Writing library: LAME3.99r
Encoding settings: -m s -V 4 -q 2 -lowpass 17 -b 1
Ссылка Дневник пастыря / First Reformed (HDRip) скачать торрент Триллер - Торрент-Трекер находится под похожими раздачами Download Torrent
Дневник пастыря / First Reformed (HDRip) скачать торрент Триллер - Торрент-Трекер
Скриншоты Дневник пастыря / First Reformed

скачать торрент, Игры на PC, Download Torrent, мультфильм, фильм, hdrip, Триллер
Добавил: SxS | Просмотров: 44 | Рейтинг: 0.0/0
Добавлять комментарии могут только зарегистрированные пользователи.
[ Регистрация | Вход ]
Ужасы [101]
Horrors
Фантастика [87]
Fantastic
Боевик [101]
Action
Триллер [104]
Thriller
Криминал [3]
Crime
Военный [2]
Military
Вестерн [11]
Western
Документальный [6]
Documentary
Биография [4]
Biography
Драма [264]
Drama
Мелодрама [24]
Melodrama
Комедия [77]
Comedy
Мюзикл [7]
Musical
Приключения [13]
Adventure
Пародия [6]
Parody
Мультфильмы [23]
Cartoons
Мультсериал [1]
Animated series
Аниме [2]
Anime
Форма входа
Поиск
Лучшие раздачи