Приветствую Вас Гость

World of Warships [SOI] RU+CIS
Торрент-Трекер » HDRip » Триллер

День патриота / Patriots Day (HDRip) скачать торрент

[ ]



День патриота / Patriots Day (HDRip) скачать торрент Триллер - Торрент-Трекер

Информация о фильме
Название: День патриота
Оригинальное название: Patriots Day
Год выхода: 2016
Жанр: триллер, драма, криминал, история
Режиссер: Питер Берг
В ролях: Марк Уолберг, Кевин Бейкон, Джон Гудман, Дж.К. Симмонс, Мишель Монахэн, Алекс Вулф, Темо Меликидзе, Джимми О. Ян, Майкл Бич, Рэйчел Броснахэн, Дикки Эклунд мл., Майкл Маршан, Рет Кидд, Фрэнк Чарновски, Кристофер О’Ши, Джейк Пикинг, Лана Кондор, Джерри Двайер мл., Дэвид Ортиc, Ханди Александер

О фильме: Взгляд на бостонскую трагедию 2013 года глазами комиссара полиции Эда Дэвиса. Два взрыва на марафонском забеге оглушили мировую общественность, но не Эда и его коллег, которые разворачивают розыск террористов по горячим следам.

Страна: США
Продолжительность: 02:13:09
Перевод: Профессиональный (многоголосый, закадровый) 'СВ Студия'
Субтитры: Нет

ПРИСУТСТВУЕТ НЕНОРМАТИВНАЯ ЛЕКСИКА!

Файл
Кодек: XviD
Качество: HDRip
Видео: 688x288 (2.39:1), 23.976 fps, XviD build 73 ~647 kbps avg, 0.14 bit/pixel
Звук: 48 kHz, MPEG Layer 3, 2 ch, ~128.00 kbps avg

MediaInfo
General
Complete name: Patriots.Day.2016.HDRip.ot.Portablius.avi
Format: AVI
Format/Info: Audio Video Interleave
File size: 748 MiB
Duration: 2 h 13 min
Overall bit rate: 785 kb/s
Writing application: VirtualDubMod 1.5.10.3 | www.virtualdub-fr.org || (build 2550/release)
Writing library: VirtualDubMod build 2550/release

Video
ID: 0
Format: MPEG-4 Visual
Format profile: Advanced Simple@L5
Format settings, BVOP: 1
Format settings, QPel: No
Format settings, GMC: No warppoints
Format settings, Matrix: Custom
Codec ID: XVID
Codec ID/Hint: XviD
Duration: 2 h 13 min
Bit rate: 648 kb/s
Width: 688 pixels
Height: 288 pixels
Display aspect ratio: 2.40:1
Frame rate: 23.976 (24000/1001) FPS
Color space: YUV
Chroma subsampling: 4:2:0
Bit depth: 8 bits
Scan type: Progressive
Compression mode: Lossy
Bits/(Pixel*Frame): 0.136
Stream size: 617 MiB (83%)
Writing library: XviD 73

Audio
ID: 1
Format: MPEG Audio
Format version: Version 1
Format profile: Layer 3
Codec ID: 55
Codec ID/Hint: MP3
Duration: 2 h 13 min
Bit rate mode: Constant
Bit rate: 128 kb/s
Channel(s): 2 channels
Sampling rate: 48.0 kHz
Compression mode: Lossy
Stream size: 122 MiB (16%)
Alignment: Aligned on interleaves
Interleave, duration: 42 ms (1.00 video frame)
Interleave, preload duratio: 504 ms
Writing library: LAME3.99r
Encoding settings: -m s -V 4 -q 2 -lowpass 17 -b 1
Ссылка День патриота / Patriots Day (HDRip) скачать торрент Триллер - Торрент-Трекер находится под похожими раздачами Download Torrent
День патриота / Patriots Day (HDRip) скачать торрент Триллер - Торрент-Трекер
Скриншоты День патриота / Patriots Day

скачать торрент, Игры на PC, Download Torrent, мультфильм, фильм, hdrip, Триллер
Добавил: SxS | Просмотров: 59 | Рейтинг: 0.0/0
Добавлять комментарии могут только зарегистрированные пользователи.
[ Регистрация | Вход ]
Ужасы [101]
Horrors
Фантастика [87]
Fantastic
Боевик [101]
Action
Триллер [104]
Thriller
Криминал [3]
Crime
Военный [2]
Military
Вестерн [11]
Western
Документальный [6]
Documentary
Биография [4]
Biography
Драма [264]
Drama
Мелодрама [24]
Melodrama
Комедия [77]
Comedy
Мюзикл [7]
Musical
Приключения [13]
Adventure
Пародия [6]
Parody
Мультфильмы [23]
Cartoons
Мультсериал [1]
Animated series
Аниме [2]
Anime
Форма входа
Поиск
Лучшие раздачи