Приветствую Вас Гость

World of Warships [SOI] RU+CIS
Торрент-Трекер » HDRip » Триллер

Бритва / Dressed to Kill (HDRip) скачать торрент

[ ]



Бритва / Dressed to Kill (HDRip) скачать торрент Триллер - Торрент-Трекер

Информация о фильме
Название: Бритва
Оригинальное название: Dressed to Kill
Год выхода: 1980
Жанр: детектив, триллер
Режиссер: Брайан Де Пальма
В ролях: Нэнси Аллен, Кит Гордон, Энджи Дикинсон, Майкл Кейн, Кен Бейкер, Брэндон Маггарт, Дэвид Маргулис, Деннис Франц, Билл Рэндольф, Сэмм-Арт Уильямс, Аннека Ди Лоренцо, Норман Эванс, Мэри Девенпорт и др.

О фильме: Она называет себя Бобби — высокая блондинка с ненасытным желанием убивать. Согласно записям доктора Эллиота, Бобби была его пациенткой, но перешла к другому врачу. Острая бритва, которая служит Бобби орудием убийства, была украдена из роскошного кабинета доктора Эллиота в престижном районе Нью-Йорка, в котором он ведет свою успешную психиатрическую практику. Очередной жертвой Бобби становится Кейт, другая пациентка доктора Эллиота, страдавшая от столь ярких эротических фантазий, что сама порой не могла отделить их от реальности. Проститутка Лиз случайно становится свидетельницей этого преступления, сразу же превратившись в объект преследования для убийцы и в подозреваемую для полиции. Только она сможет пролить свет на тайну высокой блондинки — если, конечно, ей удастся остаться в живых.

Страна: США
Продолжительность: 01:45:16
Перевод: Профессиональный (двухголосый, закадровый)
Субтитры: Нет

Файл
Кодек: XviD
Качество: HDRip
Видео: 720x304 (2.37:1), 23.976 fps, XviD build 73 ~843 kbps avg, 0.16 bit/pixel
Звук: 48 kHz, MPEG Layer 3, 2 ch, ~128.00 kbps avg

MediaInfo
General
Complete name: Dressed.to.Kill.1980.HDRip.ot.Portablius.avi
Format: AVI
Format/Info: Audio Video Interleave
File size: 739 MiB
Duration: 1 h 45 min
Overall bit rate: 981 kb/s
Writing application: VirtualDubMod 1.5.10.3 | www.virtualdub-fr.org || (build 2550/release)
Writing library: VirtualDubMod build 2550/release

Video
ID: 0
Format: MPEG-4 Visual
Format profile: Advanced Simple@L5
Format settings, BVOP: 1
Format settings, QPel: No
Format settings, GMC: No warppoints
Format settings, Matrix: Custom
Codec ID: XVID
Codec ID/Hint: XviD
Duration: 1 h 45 min
Bit rate: 844 kb/s
Width: 720 pixels
Height: 304 pixels
Display aspect ratio: 2.35:1
Frame rate: 23.976 (24000/1001) FPS
Color space: YUV
Chroma subsampling: 4:2:0
Bit depth: 8 bits
Scan type: Progressive
Compression mode: Lossy
Bits/(Pixel*Frame): 0.161
Stream size: 635 MiB (86%)
Writing library: XviD 73

Audio
ID: 1
Format: MPEG Audio
Format version: Version 1
Format profile: Layer 3
Codec ID: 55
Codec ID/Hint: MP3
Duration: 1 h 45 min
Bit rate mode: Constant
Bit rate: 128 kb/s
Channel(s): 2 channels
Sampling rate: 48.0 kHz
Compression mode: Lossy
Stream size: 96.4 MiB (13%)
Alignment: Aligned on interleaves
Interleave, duration: 42 ms (1.00 video frame)
Interleave, preload duratio: 504 ms
Writing library: LAME3.99r
Encoding settings: -m s -V 4 -q 2 -lowpass 17 -b 1
Ссылка Бритва / Dressed to Kill (HDRip) скачать торрент Триллер - Торрент-Трекер находится под похожими раздачами Download Torrent
Бритва / Dressed to Kill (HDRip) скачать торрент Триллер - Торрент-Трекер
Скриншоты Бритва / Dressed to Kill

скачать торрент, Игры на PC, Download Torrent, мультфильм, фильм, hdrip, Триллер
Добавил: SxS | Просмотров: 12 | Рейтинг: 0.0/0
Добавлять комментарии могут только зарегистрированные пользователи.
[ Регистрация | Вход ]
Ужасы [96]
Horrors
Фантастика [82]
Fantastic
Боевик [94]
Action
Триллер [100]
Thriller
Криминал [3]
Crime
Военный [2]
Military
Вестерн [11]
Western
Документальный [6]
Documentary
Биография [3]
Biography
Драма [244]
Drama
Мелодрама [23]
Melodrama
Комедия [71]
Comedy
Мюзикл [5]
Musical
Приключения [13]
Adventure
Пародия [6]
Parody
Мультфильмы [22]
Cartoons
Мультсериал [1]
Animated series
Аниме [2]
Anime
Форма входа
Поиск
Лучшие раздачи