Приветствую Вас Гость

Total War: ARENA
Торрент-Трекер » HDRip » Триллер

12-й человек / Den 12. mann (HDRip) скачать торрент

[ Раздача закрыта по требованию правообладателя ]



12-й человек / Den 12. mann (HDRip) скачать торрент Триллер - Торрент-Трекер

Информация о фильме
Название: 12-й человек
Оригинальное название: Den 12. mann / The 12th Man
Год выпуска: 2017
Страна: Норвегия
Жанр: триллер, драма, военный, история

Перевод: Любительский многоголосый [RusFilm]
Примечание: Релиз без рекламы!
Субтитры: Русские (форсированные, вшитые)
Продолжительность: 02:15:21
Режиссер: Харольд Цварт
В ролях: Томас Гуллестад (Jan Baalsrud), Джонатан Риз Майерс (Kurt Stage), Мари Блокхус (Gudrun Gronvoll), Мадс Сьёгард Петтерсен (Marius Gronvoll), Вегар Хуль (Sigurd Eskeland), Хокон Т. Нильсен (Erik Reichelt), Эйрик Рисхольм Велле (Per Blindheim), Даниэль Фрикстад (Gabriel Salvesen), Эрик Дирнес (Bjorn Norman Bolstad), Александр Цварт (Sjur Ludvigsen Trovag), Торгни Герхард Андера (Sverre Odd Kverhellen), Hakon Smeby (Harald Peter Ratvik)

Описание:
Группа бойцов норвежского сопротивления получает задание добраться до северо-западного норвежского побережья на судне «Браттхольм» и совершить диверсию на одной из немецких авиационных баз. Но миссия потерпела фиаско еще в море: судно было атаковано немецким кораблем и потоплено. Единственным человеком, которому удалось спастись, оказался Ян Болсруд. Ему удается добраться до берега и бежать в сторону шведской границы. Преследуемый гестапо, Болсруд ищет убежище в горах. Здесь его настигает снежная буря, он прячется в пещере, которая оказывается смертельной ловушкой.
Рейтинг:

Качество: HDRip
Формат: AVI
Видео: XviD, 720x304 (2.37:1), 1343 kbps, 23,976 fps, 0,256 bpp
Аудио: русский / AC3 / 2.0 / 48 kHz / 192 kbps - MVO

ОтчетМедиаИнфо
Общее
Полное имя: F:The.12th.Man.2017.MVO.HDRip.1.46Gb.R.G.Resident.avi
Формат: AVI
Формат/Информация: Audio Video Interleave
Размер файла: 1,46 Гбайт
Продолжительность: 2 ч. 15 м.
Общий поток: 1544 Кбит/сек
Программа кодирования: VirtualDubModRus 1.5.10.2 (build 2542/release)
Библиотека кодирования: VirtualDubMod build 2542/release

Видео
Идентификатор: 0
Формат: MPEG-4 Visual
Профиль формата: Advanced Simple@L5
Настройки формата: BVOP1 / Custom Matrix
Параметр BVOP формата: 1
Параметр QPel формата: Нет
Параметр GMC формата: Без точки перехода
Параметр матрицы формата: Выборочная
Идентификатор кодека: XVID
Идентификатор кодека/Подсказка: XviD
Продолжительность: 2 ч. 15 м.
Битрейт: 1343 Кбит/сек
Ширина: 720 пикселей
Высота: 304 пикселя
Соотношение сторон: 2,35:1
Частота кадров: 23,976 (24000/1001) кадра/сек
Цветовое пространство: YUV
Субдискретизация насыщенности: 4:2:0
Битовая глубина: 8 бит
Тип развёртки: Прогрессивная
Метод сжатия: С потерями
Бит/(Пиксели*Кадры): 0.256
Размер потока: 1,27 Гбайт (87%)
Библиотека кодирования: XviD 73

Аудио
Идентификатор: 1
Формат: AC-3
Формат/Информация: Audio Coding 3
Идентификатор кодека: 2000
Продолжительность: 2 ч. 15 м.
Вид битрейта: Постоянный
Битрейт: 192 Кбит/сек
Каналы: 2 канала
Расположение каналов: Front: L R
Частота: 48,0 КГц
Частота кадров: 31,250 кадров/сек (1536 SPF)
Битовая глубина: 16 бит
Метод сжатия: С потерями
Размер потока: 186 Мбайт (12%)
Выравнивание: Разделение по промежуткам
Продолжительность промежутка: 42 мс. (1,00 видеокадр)
Время предзагрузки промежутка: 500 м
Ссылка 12-й человек / Den 12. mann (HDRip) скачать торрент Триллер - Торрент-Трекер находится под похожими раздачами Download Torrent
12-й человек / Den 12. mann (HDRip) скачать торрент Триллер - Торрент-Трекер
Скриншоты 12-й человек / Den 12. mann

скачать торрент, Игры на PC, Download Torrent, мультфильм, фильм, hdrip, Триллер
Добавил: SxS | Просмотров: 32 | Рейтинг: 0.0/0
Добавлять комментарии могут только зарегистрированные пользователи.
[ Регистрация | Вход ]
Ужасы [74]
Horrors
Фантастика [69]
Fantastic
Боевик [71]
Action
Триллер [63]
Thriller
Криминал [2]
Crime
Военный [2]
Military
Вестерн [9]
Western
Документальный [6]
Documentary
Биография [2]
Biography
Драма [208]
Drama
Мелодрама [18]
Melodrama
Комедия [58]
Comedy
Мюзикл [5]
Musical
Приключения [8]
Adventure
Пародия [5]
Parody
Мультфильмы [18]
Cartoons
Мультсериал [1]
Animated series
Аниме [2]
Anime
Форма входа
Поиск
Лучшие раздачи