Приветствую Вас Гость

Total War: ARENA
Торрент-Трекер » HDRip » Мюзикл

Пляжные игры / Бинго на пляже / Пляжное бинго на подстилке / Beach Blanket Bingo (HDRip) скачать торрент

[ Раздача закрыта по требованию правообладателя ]



Пляжные игры / Бинго на пляже / Пляжное бинго на подстилке / Beach Blanket Bingo (HDRip) скачать торрент Мюзикл - Торрент-Трекер

Информация о фильме
Название: Пляжные игры / Бинго на пляже / Пляжное бинго на подстилке
Оригинальное название: Beach Blanket Bingo
Год выхода: 1965
Жанр: Мюзикл, мелодрама, комедия
Режиссер: Уильям Эшер
В ролях: Фрэнки Авалон, Аннетт Фаничелло, Дебора Уолли, Харви Лембек, Джон Эшли, Джоди МакКри, Донна Лорен, Пол Линде, Бастер Китон, Марта Кристен, Линда Эванс, Тимоти Кэри, Дарлин Лут

О фильме:
Начинающая певица, для 'раскрутки' своего альбома, совершает 'фиктивный' прыжок с парашютом - вместо нее прыгает дублерша. Видевшие прыжок серферы, принимают все за чистую монету. Ее появление проверяет на прочность отношение влюбленной парочки. А видевшие это байкеры были на столько впечатлены, что решили похитить девушку. Но тут... одного из серферов спасает русалка...

Страна: США
Студия: Alta Vista Productions
Продолжительность: 01:36:36
Перевод: Профессиональный двухголосый | НТВ+

Файл
Кодек: XviD
Качество: HDRip
Видео: 720x304 (2.35:1), 23.976 fps, XviD build 73, 1716 kbps
Звук #1: Русский | 48 kHz, AC3 Dolby Digital, 2.0 ch, 192 kbps
Звук #2: Английский | 48 kHz, AC3 Dolby Digital, 2.0 ch, 192 kbps
Субтитры: Русские (отдельно)

Инфо-файл
Формат: AVI
Формат/Информация: Audio Video Interleave
Размер файла: 1,43 Гбайт
Продолжительность: 1 ч. 36 м.
Общий поток: 2114 Кбит/сек
Название фильма: Beach.Blanket.Bingo.1965.HDRip.by.zzZGVvv
Программа кодирования: VirtualDubMod 1.5.10.3 (build 2550/release)
Примечание: Beach.Blanket.Bingo.1965.HDRip.by.zzZGVvv

Видео
Идентификатор: 0
Формат: MPEG-4 Visual
Профиль формата: Advanced Simple@L5
Параметр BVOP формата: 2
Параметр QPel формата: Нет
Параметр GMC формата: Без точки перехода
Параметр матрицы формата: Default (H.263)
Идентификатор кодека: XVID
Идентификатор кодека/Подсказка: XviD
Продолжительность: 1 ч. 36 м.
Битрейт: 1716 Кбит/сек
Ширина: 720 пикселей
Высота: 304 пикселя
Соотношение сторон: 2,35:1
Частота кадров: 23,976 кадра/сек
Цветовое пространство: YUV
Субдискретизация насыщенности: 4:2:0
Битовая глубина: 8 бит
Тип развёртки: Прогрессивная
Метод сжатия: С потерями
Бит/(Пиксели*Кадры): 0.327
Размер потока: 1,16 Гбайт (81%)
Библиотека кодирования: XviD 73

Аудио #1
Идентификатор: 1
Формат: AC-3
Формат/Информация: Audio Coding 3
Расширение режима: CM (complete main)
Параметр Endianness формата: Big
Идентификатор кодека: 2000
Продолжительность: 1 ч. 36 м.
Вид битрейта: Постоянный
Битрейт: 192 Кбит/сек
Каналы: 2 канала
Расположение каналов: Front: L R
Частота: 48,0 КГц
Метод сжатия: С потерями
Размер потока: 133 Мбайт (9%)
Выравнивание: Соединение по промежуткам
Продолжительность промежутка: 42 мс. (1,00 видеокадр)
Время предзагрузки промежутка: 512 мс.

Аудио #2
Идентификатор: 2
Формат: AC-3
Формат/Информация: Audio Coding 3
Расширение режима: CM (complete main)
Параметр Endianness формата: Big
Идентификатор кодека: 2000
Продолжительность: 1 ч. 36 м.
Вид битрейта: Постоянный
Битрейт: 192 Кбит/сек
Каналы: 2 канала
Расположение каналов: Front: L R
Частота: 48,0 КГц
Метод сжатия: С потерями
Размер потока: 133 Мбайт (9%)
Выравнивание: Разделение по промежуткам
Продолжительность промежутка: 42 мс. (1,00 видеокадр)
Время предзагрузки промежутка: 500 мс.

Общее
Полное имя:
Формат: SubRip
Размер файла: 94,3 Кбайт

Текст
Формат: SubRip
Метод сжатия: Без потерь


Ссылка Пляжные игры / Бинго на пляже / Пляжное бинго на подстилке / Beach Blanket Bingo (HDRip) скачать торрент Мюзикл - Торрент-Трекер находится под похожими раздачами Download Torrent
Пляжные игры / Бинго на пляже / Пляжное бинго на подстилке / Beach Blanket Bingo (HDRip) скачать торрент Мюзикл - Торрент-Трекер
Скриншоты Пляжные игры / Бинго на пляже / Пляжное бинго на подстилке / Beach Blanket Bingo

скачать торрент, Игры на PC, Download Torrent, мультфильм, фильм, hdrip, Мюзикл
Добавил: SxS | Просмотров: 30 | Рейтинг: 0.0/0
Добавлять комментарии могут только зарегистрированные пользователи.
[ Регистрация | Вход ]
Ужасы [80]
Horrors
Фантастика [75]
Fantastic
Боевик [78]
Action
Триллер [76]
Thriller
Криминал [2]
Crime
Военный [2]
Military
Вестерн [9]
Western
Документальный [6]
Documentary
Биография [3]
Biography
Драма [228]
Drama
Мелодрама [20]
Melodrama
Комедия [66]
Comedy
Мюзикл [5]
Musical
Приключения [11]
Adventure
Пародия [5]
Parody
Мультфильмы [21]
Cartoons
Мультсериал [1]
Animated series
Аниме [2]
Anime
Форма входа
Поиск
Лучшие раздачи