Приветствую Вас Гость

Total War: ARENA
Торрент-Трекер » HDRip » Мелодрама

Рим / Rome (HDRip) скачать торрент

[ Раздача закрыта по требованию правообладателя ]



Рим / Rome (HDRip) скачать торрент Мелодрама - Торрент-Трекер

Информация о фильме
Название:Рим
Оригинальное название:Rome
Год выхода:2005-2007
Жанр: Историческая драма, Древний Рим, гладиаторы, боевик
Режиссер:Майкл Эптид, Аллен Коултер, Алан Пол, Стив Шилл, Тимоти Ван Паттен, Алан Тейлор, Джон Мэйбери
В ролях:Кевин МакКидд, Рэй Стивенсон, Полли Уокер, Керри Кондон, Киаран Хайндс, Джеймс Пьюрфой, Йен МакНайс, Линдси Дункан, Лидия Бионди, Тобиаш Мензес, Дэвид Бамбер, Макс Пиркис, Ли Бордман

О фильме:
'Рим' - совместный проект BBC и американской телекомпании HBO. Многосерийная кинолента переносит зрителя в середину I века до нашей эры - в период заката Римской республики. Проконсул и император галльских легионов Гай Юлий Цезарь возвращается в Рим после почти девятилетней войны, полностью подавив восстание галлов. Объявленный вне закона, он вступает в конфронтацию с сенатом и консулом Гнеем Помпеем. Первый сезон сериала 'Рим' повествует об этом и последующих событиях времен правления Цезаря вплоть до трагических мартовских ид 44-го года. На фоне кровавых войн, безжалостных интриг и борьбы за власть, прикрываемой словами о возрождении Республики, рассказывается и о нелегкой участи простых людей. Двое ветеранов прославленного 13-го легиона - Луций Ворен и Тит Пуло пытаются вернуться к нормальной гражданской жизни, но мечтам о мире и покое не суждено сбыться. Красочные, яркие сцены, по словам создателей телесериала, отличаются максимальной исторической достоверностью. Дело не только в скрупулезном следовании деталям в создании костюмов и интерьеров. Авторам удалось передать дух эпохи с ее жестокими нравами, батальными сценами, обилием секса. Именно так создатели картины представляют себе последние годы правления Юлия Цезаря.

Страна:США
Студия:HD Vision Studios, British Broadcasting Corporation (BBC), Home Box Office (HBO)
Продолжительность: [S01-02] 22 x ~ 00:53:00
Перевод:НТВ+

Файл
Кодек:Xvid
Качество:HDRip
Видео:~ 837 kbps, 606x336, 23.976 fps
Звук:RUS: AC3, 48.0 KHz, 2 ch, 128 kbps

MediaInfo General
Complete name : C:Римseason1s01e01_The.Stolen.Eagle.avi
Format : AVI
Format/Info : Audio Video Interleave
File size : 355 MiB
Duration : 50 min 51 s
Overall bit rate : 975 kb/s
Writing application : Lavf54.63.104

Video
ID : 0
Format : xvid
Codec ID : xvid
Duration : 50 min 51 s
Bit rate : 837 kb/s
Width : 608 pixels
Height : 336 pixels
Display aspect ratio : 16:9
Frame rate : 23.976 (24000/1001) FPS
Scan type : Progressive
Bits/(Pixel*Frame) : 0.171
Stream size : 305 MiB (86%)

Audio
ID : 1
Format : AC-3
Format/Info : Audio Coding 3
Codec ID : 2000
Duration : 50 min 51 s
Bit rate mode : Constant
Bit rate : 128 kb/s
Channel(s) : 2 channels
Channel positions : Front: L R
Sampling rate : 44.1 kHz
Frame rate : 28.711 FPS (1536 SPF)
Bit depth : 16 bits
Compression mode : Lossy
Stream size : 46.6 MiB (13%)
Alignment : Aligned on interleaves
Interleave, duration : 35 ms (0.84 video frame)
Service kind : Complete Main

Залилmega33
Ссылка Рим / Rome (HDRip) скачать торрент Мелодрама - Торрент-Трекер находится под похожими раздачами Download Torrent
Рим / Rome (HDRip) скачать торрент Мелодрама - Торрент-Трекер
Скриншоты Рим / Rome

скачать торрент, Игры на PC, Download Torrent, мультфильм, фильм, hdrip, Мелодрама
Добавил: SxS | Просмотров: 14 | Загрузок: 1 | Рейтинг: 0.0/0
Добавлять комментарии могут только зарегистрированные пользователи.
[ Регистрация | Вход ]
Ужасы [56]
Horrors
Фантастика [58]
Fantastic
Боевик [66]
Action
Триллер [53]
Thriller
Криминал [2]
Crime
Военный [2]
Military
Вестерн [7]
Western
Документальный [6]
Documentary
Биография [2]
Biography
Драма [188]
Drama
Мелодрама [12]
Melodrama
Комедия [49]
Comedy
Мюзикл [3]
Musical
Приключения [5]
Adventure
Пародия [3]
Parody
Мультфильмы [13]
Cartoons
Мультсериал [1]
Animated series
Аниме [2]
Anime
Форма входа
Поиск
Лучшие раздачи