Приветствую Вас Гость

Total War: ARENA
Торрент-Трекер » HDRip » Мелодрама

Пуля для Джои / A Bullet for Joey (HDRip) скачать торрент

[ Раздача закрыта по требованию правообладателя ]



Пуля для Джои / A Bullet for Joey (HDRip) скачать торрент Мелодрама - Торрент-Трекер

Пуля для Джои / A Bullet for Joey

Страна: США
Производство: Bischoff-Diamond Corporation
Год выпуска: 1955
Жанр:фильм-нуар, триллер, драма, криминал
Продолжительность: 01:27:10

Режиссер: Льюис Аллен
Авторы сценария: Дэниэл Мэйнуоринг, А.И. Беззерайдс

В ролях: Эдвард Дж. Робинсон, Джордж Рафт, Одри Тоттер, Джордж Доленц, Петер ван Эйк, Тони Джерри, Уильям Брайант, Джон Клифф, Стивен Герэй

Описание: Фильм рассказывает о гангстере, которого нанимает разведка иностранной державы, чтобы тот похитил из Канады крупного учёного-атомщика. Когда шпионская группа совершает серию убийств в Монреале, расследование поручается инспектору Королевской канадской конной полиции...

Перевод: отсутствует | субтитры
Субтитры:отдельными файлами | русские (от karlivanovich)

Качество: HDRip
Формат: AVI
Видео кодек: XviD
Аудио кодек: АС3
Видео: 704x400 (16:9), 23.976 fps, XviD build 73 ~2 044 kbps avg
Аудио: 48.0 kHz, AC3 Dolby Digital, 2/0 (L,R) ch, ~192 kbps
Формат субтитров: *SRT

Дата премьеры (мир): 15 апреля 1955

Media Info
General
Полное имя: A Bullet for Joey.avi
Формат: AVI
Формат/Информация: Audio Video Interleave
Размер файла: 1,37 Гбайт
Продолжительность: 1 ч. 27 м.
Общий поток: 2245 Кбит/сек
Программа кодирования: VirtualDubMod 1.5.10.3 | (build 2550/release)
Библиотека кодирования: VirtualDubMod build 2550/release

Видео
Идентификатор: 0
Формат: MPEG-4 Visual
Профиль формата: Advanced Simple@L5
Параметр BVOP формата: 2
Параметр QPel формата: Нет
Параметр GMC формата: Без точки перехода
Параметр матрицы формата: Default (H.263)
Идентификатор кодека: DX50
Идентификатор кодека/Подсказка: DivX 5
Продолжительность: 1 ч. 27 м.
Битрейт: 2044 Кбит/сек
Ширина: 704 пикселя
Высота: 400 пикселей
Соотношение сторон: 16:9
Частота кадров: 23,976 (24000/1001) кадра/сек
Частота кадров в оригинале: 23,976 (23976/1000) кадра/сек
Цветовое пространство: YUV
Субдискретизация насыщенности: 4:2:0
Битовая глубина: 8 бит
Тип развёртки: Прогрессивная
Метод сжатия: С потерями
Бит/(Пиксели*Кадры): 0.303
Размер потока: 1,24 Гбайт (91%)
Библиотека кодирования: XviD 73

Аудио
Идентификатор: 1
Формат: AC-3
Формат/Информация: Audio Coding 3
Параметр Endianness формата: Big
Идентификатор кодека: 2000
Продолжительность: 1 ч. 27 м.
Вид битрейта: Постоянный
Битрейт: 192 Кбит/сек
Каналы: 2 канала
Расположение каналов: Front: L R
Частота: 48,0 КГц
Частота кадров: 31,250 кадров/сек (1536 spf)
Битовая глубина: 16 бит
Метод сжатия: С потерями
Размер потока: 120 Мбайт (9%)
Выравнивание: Разделение по промежуткам
Продолжительность промежутка: 42 мс. (1,00 видеокадр)
Время предзагрузки промежутка: 500 мс.


Ссылка Пуля для Джои / A Bullet for Joey (HDRip) скачать торрент Мелодрама - Торрент-Трекер находится под похожими раздачами Download Torrent
Пуля для Джои / A Bullet for Joey (HDRip) скачать торрент Мелодрама - Торрент-Трекер
Скриншоты Пуля для Джои / A Bullet for Joey

скачать торрент, Игры на PC, Download Torrent, мультфильм, фильм, hdrip, Мелодрама
Добавил: SxS | Просмотров: 20 | Рейтинг: 0.0/0
Добавлять комментарии могут только зарегистрированные пользователи.
[ Регистрация | Вход ]
Ужасы [74]
Horrors
Фантастика [69]
Fantastic
Боевик [71]
Action
Триллер [63]
Thriller
Криминал [2]
Crime
Военный [2]
Military
Вестерн [9]
Western
Документальный [6]
Documentary
Биография [2]
Biography
Драма [208]
Drama
Мелодрама [18]
Melodrama
Комедия [58]
Comedy
Мюзикл [5]
Musical
Приключения [8]
Adventure
Пародия [5]
Parody
Мультфильмы [18]
Cartoons
Мультсериал [1]
Animated series
Аниме [2]
Anime
Форма входа
Поиск
Лучшие раздачи