Приветствую Вас Гость

Total War: ARENA
Торрент-Трекер » HDRip » Мелодрама

Дедлайн (HDRip) скачать торрент

[ Раздача закрыта по требованию правообладателя ]



Дедлайн (HDRip) скачать торрент Мелодрама - Торрент-Трекер

Информация о фильме
Название:Дедлайн
Год выхода:2018
Жанр:короткометражка, драма
Режиссер:Герман Полозов
В ролях:Евгений Баханов, Антон Тимофеев, Александр Рубан, Слава Гардер, Екатерина Марсальская, Дамир Миркамилов, Екатерина Клат, Николай Мурыгин

О фильме:История популярного блогера, который делает серию журналистских расследований, стремясь ответить на сложный моральный вопрос — когда человек становится преступником? Когда совершил преступление или когда был за него осужден?

Страна:Россия
Студия:AG Films
Продолжительность:00:20:36
Перевод:Не Требуется
Субтитры:Нет

Файл
Кодек:XviD
Качество:HDRip
Видео:720x304 (2.37:1), 25 fps, XviD build 73 ~831 kbps avg, 0.15 bit/pixel
Звук:48 kHz, MPEG Layer 3, 2 ch, ~128.00 kbps avg

MediaInfo
General
Complete name : Deadline.2018.HDRip.ot.Portablius.avi
Format : AVI
Format/Info : Audio Video Interleave
File size : 143 MiB
Duration : 20 min 36 s
Overall bit rate : 970 kb/s
Writing application : VirtualDubMod 1.5.10.3 | www.virtualdub-fr.org || (build 2550/release)
Writing library : VirtualDubMod build 2550/release

Video
ID : 0
Format : MPEG-4 Visual
Format profile : Advanced Simple@L5
Format settings, BVOP : 1
Format settings, QPel : No
Format settings, GMC : No warppoints
Format settings, Matrix : Custom
Codec ID : XVID
Codec ID/Hint : XviD
Duration : 20 min 36 s
Bit rate : 832 kb/s
Width : 720 pixels
Height : 304 pixels
Display aspect ratio : 2.35:1
Frame rate : 25.000 FPS
Color space : YUV
Chroma subsampling : 4:2:0
Bit depth : 8 bits
Scan type : Progressive
Compression mode : Lossy
Bits/(Pixel*Frame) : 0.152
Stream size : 123 MiB (86%)
Writing library : XviD 73

Audio
ID : 1
Format : MPEG Audio
Format version : Version 1
Format profile : Layer 3
Codec ID : 55
Codec ID/Hint : MP3
Duration : 20 min 36 s
Bit rate mode : Constant
Bit rate : 128 kb/s
Channel(s) : 2 channels
Sampling rate : 48.0 kHz
Compression mode : Lossy
Stream size : 18.9 MiB (13%)
Alignment : Aligned on interleaves
Interleave, duration : 40 ms (1.00 video frame)
Interleave, preload duratio : 504 ms
Writing library : LAME3.99r
Encoding settings : -m s -V 4 -q 2 -lowpass 17 -b 128


ЗалилEvgen Portable
Ссылка Дедлайн (HDRip) скачать торрент Мелодрама - Торрент-Трекер находится под похожими раздачами Download Torrent
Дедлайн (HDRip) скачать торрент Мелодрама - Торрент-Трекер
Скриншоты Дедлайн

скачать торрент, Игры на PC, Download Torrent, мультфильм, фильм, hdrip, Мелодрама
Добавил: SxS | Просмотров: 15 | Рейтинг: 0.0/0
Добавлять комментарии могут только зарегистрированные пользователи.
[ Регистрация | Вход ]
Ужасы [56]
Horrors
Фантастика [58]
Fantastic
Боевик [66]
Action
Триллер [54]
Thriller
Криминал [2]
Crime
Военный [2]
Military
Вестерн [7]
Western
Документальный [6]
Documentary
Биография [2]
Biography
Драма [188]
Drama
Мелодрама [12]
Melodrama
Комедия [50]
Comedy
Мюзикл [3]
Musical
Приключения [5]
Adventure
Пародия [3]
Parody
Мультфильмы [13]
Cartoons
Мультсериал [1]
Animated series
Аниме [2]
Anime
Форма входа
Поиск
Лучшие раздачи