Приветствую Вас Гость

Total War: ARENA
Торрент-Трекер » HDRip » Ужасы

Тринадцать привидений / Thir13en Ghosts (HDRip) скачать торрент

[ Раздача закрыта по требованию правообладателя ]



Тринадцать привидений / Thir13en Ghosts (HDRip) скачать торрент Ужасы - Торрент-Трекер

Информация о фильме
Название:Тринадцать привидений (13 привидений)
Оригинальное название:Thir13en Ghosts
Год выхода:2001
Жанр:ужасы, триллер, детектив
Режиссер:Стив Бек
В ролях:Тони Шэлуб (Arthur Kriticos), Эмбет Дэвидц (Kalina Oretzia), Мэттью Лиллард (Dennis Rafkin), Шеннон Элизабет (Kathy Kriticos), Алек Робертс (Robert 'Bobby' Kriticos), ДжейАр Борн (Benjamin Moss), Ра Дигга (Maggie Bess), Ф. Мюррэй Абрахам (Cyrus Kriticos), Мэттью Харрисон (Damon), Джейкоб Рапп (Cyrus' Assistant), Майк Крестеджо (Team Member), Обри Калп (Team Member).

О фильме:После смерти своего странного дядюшки Сайруса, Артур Критикос унаследовал его не менее странный дом. В этом причудливом здании все стены и пол из стекла, украшенного латинскими заклинаниями. В этом доме автоматические двери живут своей жизнью, открываясь и закрываясь в ритме, недоступном человеческому пониманию. Не сразу Артур поймет, что, переступив порог этого жуткого особняка, он исполнит злую волю Сайруса и освободит дюжину мстительных призраков, обитающих в подвале. И тогда энергия духов приведет в действие агрегат, открывающий путь ко всей мощи потустороннего мира. Но для этого нужно, чтобы к черному зодиаку двенадцати привидений присоединилось еще одно…

Страна:США, Канада
Продолжительность:01:30:49
Перевод:Профессиональный (Многоголосый, закадровый) | ТВ3
Субтитры:Нет

Файл
Кодек:XviD
Качество:HDRip
Видео:624x352 (1.77:1), 23.976 fps, XviD build 73 ~937 kbps avg, 0.18 bit/pixel
Звук:48 kHz, MPEG Layer 3, 2 ch, ~128.00 kbps avg

MediaInfo
General
Complete name : Thir13en.Ghosts.2001.HDRip.ot.Portablius.avi
Format : AVI
Format/Info : Audio Video Interleave
File size : 698 MiB
Duration : 1 h 30 min
Overall bit rate : 1 075 kb/s
Writing application : VirtualDubMod 1.5.10.3 | www.virtualdub-fr.org || (build 2550/release)
Writing library : VirtualDubMod build 2550/release

Video
ID : 0
Format : MPEG-4 Visual
Format profile : Advanced Simple@L5
Format settings, BVOP : 1
Format settings, QPel : No
Format settings, GMC : No warppoints
Format settings, Matrix : Custom
Codec ID : XVID
Codec ID/Hint : XviD
Duration : 1 h 30 min
Bit rate : 938 kb/s
Width : 624 pixels
Height : 352 pixels
Display aspect ratio : 16:9
Frame rate : 23.976 (24000/1001) FPS
Color space : YUV
Chroma subsampling : 4:2:0
Bit depth : 8 bits
Scan type : Progressive
Compression mode : Lossy
Bits/(Pixel*Frame) : 0.178
Stream size : 609 MiB (87%)
Writing library : XviD 73

Audio
ID : 1
Format : MPEG Audio
Format version : Version 1
Format profile : Layer 3
Codec ID : 55
Codec ID/Hint : MP3
Duration : 1 h 30 min
Bit rate mode : Constant
Bit rate : 128 kb/s
Channel(s) : 2 channels
Sampling rate : 48.0 kHz
Compression mode : Lossy
Stream size : 83.1 MiB (12%)
Alignment : Aligned on interleaves
Interleave, duration : 42 ms (1.00 video frame)
Interleave, preload duratio : 504 ms
Writing library : LAME3.99r
Encoding settings : -m s -V 4 -q 2 -lowpass 17 -b 128


ЗалилEvgen Portable
Ссылка Тринадцать привидений / Thir13en Ghosts (HDRip) скачать торрент Ужасы - Торрент-Трекер находится под похожими раздачами Download Torrent
Тринадцать привидений / Thir13en Ghosts (HDRip) скачать торрент Ужасы - Торрент-Трекер
Скриншоты Тринадцать привидений / Thir13en Ghosts

скачать торрент, Игры на PC, Download Torrent, мультфильм, фильм, hdrip, Ужасы
Добавил: SxS | Просмотров: 17 | Рейтинг: 0.0/0
Добавлять комментарии могут только зарегистрированные пользователи.
[ Регистрация | Вход ]
Ужасы [57]
Horrors
Фантастика [58]
Fantastic
Боевик [66]
Action
Триллер [54]
Thriller
Криминал [2]
Crime
Военный [2]
Military
Вестерн [7]
Western
Документальный [6]
Documentary
Биография [2]
Biography
Драма [189]
Drama
Мелодрама [12]
Melodrama
Комедия [51]
Comedy
Мюзикл [3]
Musical
Приключения [5]
Adventure
Пародия [4]
Parody
Мультфильмы [13]
Cartoons
Мультсериал [1]
Animated series
Аниме [2]
Anime
Форма входа
Поиск
Лучшие раздачи