Приветствую Вас Гость

Total War: ARENA
Торрент-Трекер » HDRip » Ужасы

Токийский отель вампиров / Tokyo Vampire Hotel (HDRip) скачать торрент

[ Раздача закрыта по требованию правообладателя ]



Токийский отель вампиров / Tokyo Vampire Hotel (HDRip) скачать торрент Ужасы - Торрент-Трекер

Информация о фильме
Название: Токийский отель вампиров
Оригинальное название: Tokyo Vampire Hotel
Год выхода: 2017
Жанр: ужасы, триллер, боевик, приключения
Режиссер: Сион Соно
В ролях: Томитэ Ами, Адати Юми, Кагурадзака Мэгуми, Кахо, Мицусима Синносукэ, Ёкояма Аюму

О фильме:
Накануне своего 22-летия Манами оказывается единственной выжившей в бойне в кафе. Едва спасшись, она натыкается на странную девушку Kей. В этот же вечер на празднике, устроенном в отеле «Реквием», собираются молодые люди со всей страны. В разгар веселья гостям, что на следующий день наступит конец света, и спастись удастся только тем, кто находится в отеле. Актом милосердия это никак не назовёшь: человечество остаётся жить только затем, чтобы размножаться и служить пищей вампирам. Но в разгар вечеринки на территорию отеля вторгается враждебный клан вампиров, который мечтает стереть своих соперников с лица земли. Смогут ли жертвы, в том числе и главная героиня, выжить в этой заварушке.

Страна: Япония
Продолжительность: ~ 40 мин. серия
Перевод: Любительский, двухголосый, закадровый (перевод на русский: Akira9, озвучка: студия 'Колобок' [DeadSno и Den904])

Файл
Кодек: V_MPEG4/ISO/AVC
Качество: HDRip
Видео: 852x480, 20.000 FPS, 1000 kb/s
Звук: AC-3, 48.0 kHz, 2ch, 192 kb/s
Субтитры: нет

MediaInfo
General
Unique ID: 170436492168059717119066144628672071495 (0x8038DFD7E904F0CD85F8ED7B28688747)
Complete name: Токийский отель вампиров, 1 с. [Студия Колобок].mkv
Format: Matroska
Format version: Version 4 / Version 2
File size: 327 MiB
Duration: 38 min 47 s
Overall bit rate: 1 180 kb/s
Encoded date: UTC 2018-04-23 19:27:31
Writing application: mkvmerge v6.2.0 ('Promised Land') built on Apr 28 2013 12:22:01
Writing library: libebml v1.3.0 + libmatroska v1.4.0

Video
ID: 1
Format: AVC
Format/Info: Advanced Video Codec
Format profile: Main@L4
Format settings, CABAC: Yes
Format settings, RefFrames: 4 frames
Codec ID: V_MPEG4/ISO/AVC
Duration: 38 min 47 s
Bit rate: 1 000 kb/s
Width: 852 pixels
Height: 480 pixels
Display aspect ratio: 16:9
Frame rate mode: Constant
Frame rate: 20.000 FPS
Color space: YUV
Chroma subsampling: 4:2:0
Bit depth: 8 bits
Scan type: Progressive
Bits/(Pixel*Frame): 0.123
Stream size: 268 MiB (82%)
Writing library: x264 core 148 r2708 86b7198
Encoding settings: cabac=1 / ref=2 / deblock=1:0:0 / analyse=0x1:0x111 / me=hex / subme=6 / psy=1 / psy_rd=1.00:0.00 / mixed_ref=1 / me_range=16 / chroma_me=1 / trellis=1 / 8x8dct=0 / cqm=0 / deadzone=21,11 / fast_pskip=1 / chroma_qp_offset=-2 / threads=6 / lookahead_threads=1 / sliced_threads=0 / nr=0 / decimate=1 / interlaced=0 / bluray_compat=0 / constrained_intra=0 / bframes=3 / b_pyramid=2 / b_adapt=1 / b_bias=0 / direct=1 / weightb=1 / open_gop=0 / weightp=1 / keyint=200 / keyint_min=20 / scenecut=40 / intra_refresh=0 / rc_lookahead=30 / rc=abr / mbtree=1 / bitrate=1000 / ratetol=1.0 / qcomp=0.60 / qpmin=0 / qpmax=69 / qpstep=4 / vbv_maxrate=20000 / vbv_bufsize=25000 / nal_hrd=none / filler=0 / ip_ratio=1.40 / aq=1:1.00
Default: Yes
Forced: No
Color range: Limited
Color primaries: BT.709
Transfer characteristics: BT.709
Matrix coefficients: BT.709

Audio
ID: 2
Format: AC-3
Format/Info: Audio Coding 3
Format settings, Endianness: Big
Codec ID: A_AC3
Duration: 38 min 47 s
Bit rate mode: Constant
Bit rate: 192 kb/s
Channel(s): 2 channels
Channel positions: Front: L R
Sampling rate: 48.0 kHz
Frame rate: 31.250 FPS (1536 SPF)
Bit depth: 16 bits
Compression mode: Lossy
Delay relative to video: -21 ms
Stream size: 53.3 MiB (16%)
Service kind: Complete Main
Default: Yes
Forced:
Ссылка Токийский отель вампиров / Tokyo Vampire Hotel (HDRip) скачать торрент Ужасы - Торрент-Трекер находится под похожими раздачами Download Torrent
Токийский отель вампиров / Tokyo Vampire Hotel (HDRip) скачать торрент Ужасы - Торрент-Трекер
Скриншоты Токийский отель вампиров / Tokyo Vampire Hotel

скачать торрент, Игры на PC, Download Torrent, мультфильм, фильм, hdrip, Ужасы
Добавил: SxS | Просмотров: 17 | Рейтинг: 0.0/0
Добавлять комментарии могут только зарегистрированные пользователи.
[ Регистрация | Вход ]
Ужасы [74]
Horrors
Фантастика [69]
Fantastic
Боевик [71]
Action
Триллер [63]
Thriller
Криминал [2]
Crime
Военный [2]
Military
Вестерн [9]
Western
Документальный [6]
Documentary
Биография [2]
Biography
Драма [208]
Drama
Мелодрама [18]
Melodrama
Комедия [58]
Comedy
Мюзикл [5]
Musical
Приключения [8]
Adventure
Пародия [5]
Parody
Мультфильмы [18]
Cartoons
Мультсериал [1]
Animated series
Аниме [2]
Anime
Форма входа
Поиск
Лучшие раздачи