Приветствую Вас Гость

World of Warships [SOI] RU+CIS
Торрент-Трекер » HDRip » Ужасы

Сонная лощина / Sleepy Hollow (HDRip) скачать торрент

[ ]



Сонная лощина / Sleepy Hollow (HDRip) скачать торрент Ужасы - Торрент-Трекер

Информация о фильме
Название: Сонная лощина
Оригинальное название: Sleepy Hollow
Год выхода: 1999
Жанр: Ужасы, фэнтези, триллер, детектив
Режиссер: Тим Бёртон
В ролях: Джонни Депп, Кристина Риччи, Миранда Ричардсон, Майкл Гэмбон, Каспер Ван Дин, Джеффри Джонс, Кристофер Ли, Ричард Гриффитс, Йен МакДиармид, Майкл Гоф, Марк Пикеринг, Лиза Мари, Стивен Вэддингтон, Кристофер Уокен, Клер Скиннер, Алан Армстронг, Марк Спэлдинг, Тони Модсли, Питер Гиннесс, Николас Хеветсон

О фильме: Нью-Йорк, 1799 год. Икабода Крэйна, молодого констебля, отправляют в местечко Сонная лощина для расследования загадочных убийств. Все жертвы, как сообщает местное население, погибают от меча всадника без головы. Все они обезглавлены, а головы исчезли. Крэйну приходится убедиться, что это не легенда, а страшная правда. Становится очевидно, что убийца приходит с того света, что в преступлениях замешаны ведьмы и иная нечисть. Всадника нельзя убить пулей, всех смельчаков он побеждает в схватках. Но каковы мотивы злодеяний?..

Страна: США
Продолжительность: 01:45:15
Перевод: Профессиональный (многоголосый, закадровый) НТВ+
Субтитры: Нет

Файл
Кодек: XviD
Качество: HDRip
Видео: 704x384 (1.83:1), 23.976 fps, XviD build 73 ~1576 kbps avg, 0.24 bit/pixel
Звук: 48 kHz, AC3 Dolby Digital, 3/2 (L,C,R,l,r) + LFE ch, ~384 kbps

MediaInfo
General
Complete name: Sleepy.Hollow.1999.HDRip.ot.Portablius.avi
Format: AVI
Format/Info: Audio Video Interleave
File size: 1.45 GiB
Duration: 1 h 45 min
Overall bit rate: 1 970 kb/s
Writing application: VirtualDubMod 1.5.10.3 | www.virtualdub-fr.org || (build 2550/release)
Writing library: VirtualDubMod build 2550/release

Video
ID: 0
Format: MPEG-4 Visual
Format profile: Advanced Simple@L5
Format settings, BVOP: 1
Format settings, QPel: No
Format settings, GMC: No warppoints
Format settings, Matrix: Custom
Codec ID: XVID
Codec ID/Hint: XviD
Duration: 1 h 45 min
Bit rate: 1 577 kb/s
Width: 704 pixels
Height: 384 pixels
Display aspect ratio: 1.85:1
Frame rate: 23.976 (24000/1001) FPS
Color space: YUV
Chroma subsampling: 4:2:0
Bit depth: 8 bits
Scan type: Progressive
Compression mode: Lossy
Bits/(Pixel*Frame): 0.243
Stream size: 1.16 GiB (80%)
Writing library: XviD 73

Audio
ID: 1
Format: AC-3
Format/Info: Audio Coding 3
Format settings, Endianness: Big
Codec ID: 2000
Duration: 1 h 45 min
Bit rate mode: Constant
Bit rate: 384 kb/s
Channel(s): 6 channels
Channel positions: Front: L C R, Side: L R, LFE
Sampling rate: 48.0 kHz
Frame rate: 31.250 FPS (1536 spf)
Bit depth: 16 bits
Compression mode: Lossy
Stream size: 289 MiB (19%)
Alignment: Split accross interleaves
Interleave, duration: 42 ms (1.00 video frame)
Interleave, preload duratio: 500 ms
Service kind: Complete Ma
Ссылка Сонная лощина / Sleepy Hollow (HDRip) скачать торрент Ужасы - Торрент-Трекер находится под похожими раздачами Download Torrent
Сонная лощина / Sleepy Hollow (HDRip) скачать торрент Ужасы - Торрент-Трекер
Скриншоты Сонная лощина / Sleepy Hollow

скачать торрент, Игры на PC, Download Torrent, мультфильм, фильм, hdrip, Ужасы
Добавил: SxS | Просмотров: 11 | Рейтинг: 0.0/0
Добавлять комментарии могут только зарегистрированные пользователи.
[ Регистрация | Вход ]
Ужасы [96]
Horrors
Фантастика [82]
Fantastic
Боевик [94]
Action
Триллер [100]
Thriller
Криминал [3]
Crime
Военный [2]
Military
Вестерн [11]
Western
Документальный [6]
Documentary
Биография [3]
Biography
Драма [244]
Drama
Мелодрама [23]
Melodrama
Комедия [71]
Comedy
Мюзикл [5]
Musical
Приключения [13]
Adventure
Пародия [6]
Parody
Мультфильмы [22]
Cartoons
Мультсериал [1]
Animated series
Аниме [2]
Anime
Форма входа
Поиск
Лучшие раздачи