Приветствую Вас Гость

World of Warships [SOI] RU+CIS
Торрент-Трекер » HDRip » Ужасы

Реаниматор / Re-Animator (HDRip) скачать торрент

[ ]



Реаниматор / Re-Animator (HDRip) скачать торрент Ужасы - Торрент-Трекер

Информация о фильме
Название: Реаниматор
Оригинальное название: Re-Animator
Год выхода: 1985
Жанр: Ужасы, фантастика, комедия
Режиссер: Стюарт Гордон
В ролях: Джеффри Комбс, Брюс Эбботт, Барбара Крэмптон, Дэвид Гэйл, Роберт Сэмпсон, Джерри Блэк, Кэролин Пёрди-Гордон, Питер Кент, Barbara Pieters, Йен Патрик Уильямс

О фильме: Мертвецов реанимирует с помощью таинственной сыворотки, полученной в результате немыслимых экспериментов, студент медицинского университета Герберт Вест. Сосед Веста по комнате Дэн помогает приятелю в его страшном деле.
Начинают они с кошки, потом добираются до трупов из университетского морга…

Страна: США
Студия: Empire Pictures, Re-Animator Productions Inc.
Продолжительность: 01:25:46
Перевод: Профессиональный (многоголосый, закадровый) R5
Субтитры: Нет

Файл
Кодек: XviD
Качество: HDRip
Видео: 688x384 (1.79:1), 23.976 fps, XviD build 73 ~1076 kbps avg, 0.17 bit/pixel
Звук: 48 kHz, MPEG Layer 3, 2 ch, ~128.00 kbps avg

MediaInfo
General
Complete name: Re.Animator.1985.HDRip.ot.Portablius.avi
Format: AVI
Format/Info: Audio Video Interleave
File size: 745 MiB
Duration: 1 h 25 min
Overall bit rate: 1 214 kb/s
Writing application: VirtualDubMod 1.5.10.3 | www.virtualdub-fr.org || (build 2550/release)
Writing library: VirtualDubMod build 2550/release

Video
ID: 0
Format: MPEG-4 Visual
Format profile: Advanced Simple@L5
Format settings, BVOP: 1
Format settings, QPel: No
Format settings, GMC: No warppoints
Format settings, Matrix: Custom
Codec ID: XVID
Codec ID/Hint: XviD
Duration: 1 h 25 min
Bit rate: 1 077 kb/s
Width: 688 pixels
Height: 384 pixels
Display aspect ratio: 16:9
Frame rate: 23.976 (24000/1001) FPS
Color space: YUV
Chroma subsampling: 4:2:0
Bit depth: 8 bits
Scan type: Progressive
Compression mode: Lossy
Bits/(Pixel*Frame): 0.170
Stream size: 660 MiB (89%)
Writing library: XviD 73

Audio
ID: 1
Format: MPEG Audio
Format version: Version 1
Format profile: Layer 3
Codec ID: 55
Codec ID/Hint: MP3
Duration: 1 h 25 min
Bit rate mode: Constant
Bit rate: 128 kb/s
Channel(s): 2 channels
Sampling rate: 48.0 kHz
Compression mode: Lossy
Stream size: 78.5 MiB (11%)
Alignment: Aligned on interleaves
Interleave, duration: 42 ms (1.00 video frame)
Interleave, preload duratio: 504 ms
Writing library: LAME3.99r
Encoding settings: -m s -V 4 -q 2 -lowpass 17 -b 1
Ссылка Реаниматор / Re-Animator (HDRip) скачать торрент Ужасы - Торрент-Трекер находится под похожими раздачами Download Torrent
Реаниматор / Re-Animator (HDRip) скачать торрент Ужасы - Торрент-Трекер
Скриншоты Реаниматор / Re-Animator

скачать торрент, Игры на PC, Download Torrent, мультфильм, фильм, hdrip, Ужасы
Добавил: SxS | Просмотров: 28 | Рейтинг: 0.0/0
Добавлять комментарии могут только зарегистрированные пользователи.
[ Регистрация | Вход ]
Ужасы [101]
Horrors
Фантастика [87]
Fantastic
Боевик [101]
Action
Триллер [104]
Thriller
Криминал [3]
Crime
Военный [2]
Military
Вестерн [11]
Western
Документальный [6]
Documentary
Биография [4]
Biography
Драма [264]
Drama
Мелодрама [24]
Melodrama
Комедия [77]
Comedy
Мюзикл [7]
Musical
Приключения [13]
Adventure
Пародия [6]
Parody
Мультфильмы [23]
Cartoons
Мультсериал [1]
Animated series
Аниме [2]
Anime
Форма входа
Поиск
Лучшие раздачи