Приветствую Вас Гость

Торрент-Трекер » HDRip » Ужасы

Осквернитель / Corruptor скачать торрентом HDRip

[ ]



Осквернитель / Corruptor скачать торрентом HDRip

Информация о фильме
Название:Осквернитель
Оригинальное название:Corruptor
Год выхода:2017
Жанр:ужасы, триллер
Режиссер:Дороти Бураем
В ролях:Брэндон Айлор, Марк Бестуль, Майк Кроуфорд, Мелисса Делиси, Аманда Эберт, Андреа Эриксон, Чад Хауфшильд и другие
О фильме:
Развратный. Извращенный. Злой. Смущенный из-за смерти младшего брата и борющийся со своей ультрарелигиозной семьей, Тайлер Иски - легкая добыча для темноты под названием Осквернитель.

Страна: США
Продолжительность:01:29:47
Перевод:Любительский (двухголосый закадровый) | HiWay Grope

Файл
Кодек:XviD
Качество:HDRip
Видео:720x400,25 fps, ~1718 kbps, 0.24 bit/pixel
Звук:
Аудио rus:AC3, 48 kHz, 2 ch, 192 Kbps
Субтитры:отсутствуют

Реклама: присутствует

Семпл

MediaInfo: General
Complete name : E:Corruptor.2017.HDRip.HiWayGropeCorruptor.2017.HDRip.HiWayGrope.avi
Format : AVI
Format/Info : Audio Video Interleave
File size : 1.20 GiB
Duration : 1h 29mn
Overall bit rate : 1 921 Kbps
Writing application : VirtualDubMod 1.5.10.2 (build 2540/release)
Writing library : VirtualDubMod build 2540/release

Video
ID : 0
Format : xvid
Codec ID : xvid
Duration : 1h 29mn
Bit rate : 1 719 Kbps
Width : 720 pixels
Height : 400 pixels
Display aspect ratio : 16:9
Frame rate : 25.000 fps
Bits/(Pixel*Frame) : 0.239
Stream size : 1.08 GiB (89%)

Audio
ID : 1
Format : AC-3
Format/Info : Audio Coding 3
Mode extension : CM (complete main)
Format settings, Endianness : Big
Codec ID : 2000
Duration : 1h 29mn
Bit rate mode : Constant
Bit rate : 192 Kbps
Channel(s) : 2 channels
Channel positions : Front: L R
Sampling rate : 48.0 KHz
Frame rate : 31.250 fps (1536 spf)
Compression mode : Lossy
Stream size : 123 MiB (10%)
Alignment : Split accross interleaves
Interleave, duration : 40 ms (1.00 video frame)
Interleave, preload duration : 500 ms



Релиз от: HiWay Grope ЗалилFrontier_guard
Ссылка Осквернитель / Corruptor скачать торрентом HDRip находится под похожими раздачами Download Torrent
Осквернитель / Corruptor скачать торрентом HDRip
Скриншоты Осквернитель / Corruptor

Осквернитель / Corruptor скачать торрентом HDRip
Добавил: SxS | Просмотров: 92 | Рейтинг: 0.0/0
Добавлять комментарии могут только зарегистрированные пользователи.
[ Регистрация | Вход ]
Ужасы [101]
Horrors
Фантастика [87]
Fantastic
Боевик [101]
Action
Триллер [104]
Thriller
Криминал [3]
Crime
Военный [2]
Military
Вестерн [11]
Western
Документальный [6]
Documentary
Биография [4]
Biography
Драма [264]
Drama
Мелодрама [24]
Melodrama
Комедия [77]
Comedy
Мюзикл [7]
Musical
Приключения [13]
Adventure
Пародия [6]
Parody
Мультфильмы [23]
Cartoons
Мультсериал [1]
Animated series
Аниме [2]
Anime
Форма входа
Поиск
Лучшие раздачи