Приветствую Вас Гость

Total War: ARENA
Торрент-Трекер » HDRip » Ужасы

Она придёт сегодня ночью / Tonight She Comes (HDRip) скачать торрент

[ Раздача закрыта по требованию правообладателя ]



Она придёт сегодня ночью / Tonight She Comes (HDRip) скачать торрент Ужасы - Торрент-Трекер

Информация о фильме
Название:Она придёт сегодня ночью
Оригинальное название: Tonight She Comes
Год выхода:2016
Жанр:Ужасы
Режиссер:Мэтт Стуэрц
В ролях:Фрэнки Рэй, Дженна Макдональд, Адам Хартли, Натан Эввейн, Дал Николь, Брок Рассел, Лариса Уайт, Камиша Коттон

О фильме:
Прошлой ночью её похитили. Утром принесли в жертву. Сегодня ночью она оживёт. А все остальные умрут.

Страна:США
Студия:Lamplight Films, Twenty Eighteen Seventy-Six
Продолжительность: 01:21:33
Перевод: Профессиональный (многоголосый, закадровый) Jaskier

Файл
Качество: HDRip
Формат: AVI
Видео: 720x384 at 23.976 fps, XviD, ~1999 kbps avg
Aудио: Russian: 48 kHz, AC3, 3/2 (L,C,R,l,r) + LFE ch, ~384 kbps avg
Субтитры: None

***Примечание: Без рекламы.

MI
Общее
Полное имя : D:ЯскъерTonight.She.Comes.2016.HDRip.Jaskier.avi
Формат : AVI
Формат/Информация : Audio Video Interleave
Размер файла : 1,36 Гбайт
Продолжительность : 1 ч. 21 м.
Общий поток : 2392 Кбит/сек
Программа кодирования : VirtualDubMod 1.5.10.3 | www.virtualdub-fr.org || (build 2550/release)
Библиотека кодирования : VirtualDubMod build 2550/release

Видео
Идентификатор : 0
Формат : MPEG-4 Visual
Профиль формата : Advanced Simple@L5
Настройки формата : BVOP1 / Custom Matrix
Параметр BVOP формата : 1
Параметр QPel формата : Нет
Параметр GMC формата : Без точки перехода
Параметр матрицы формата : Выборочная
Идентификатор кодека : XVID
Идентификатор кодека/Подсказка : XviD
Продолжительность : 1 ч. 21 м.
Битрейт : 1999 Кбит/сек
Ширина : 720 пикселей
Высота : 384 пикселя
Соотношение сторон : 1,85:1
Частота кадров : 23,976 (24000/1001) кадра/сек
Цветовое пространство : YUV
Субдискретизация насыщенности : 4:2:0
Битовая глубина : 8 бит
Тип развёртки : Прогрессивная
Метод сжатия : С потерями
Бит/(Пиксели*Кадры) : 0.301
Размер потока : 1,14 Гбайт (84%)
Библиотека кодирования : XviD 73

Аудио
Идентификатор : 1
Формат : AC-3
Формат/Информация : Audio Coding 3
Идентификатор кодека : 2000
Продолжительность : 1 ч. 21 м.
Вид битрейта : Постоянный
Битрейт : 384 Кбит/сек
Каналы : 6 каналов
Расположение каналов : Front: L C R, Side: L R, LFE
Частота : 48,0 КГц
Частота кадров : 31,250 кадров/сек (1536 SPF)
Битовая глубина : 16 бит
Метод сжатия : С потерями
Размер потока : 224 Мбайт (16%)
Выравнивание : Разделение по промежуткам
Продолжительность промежутка : 42 мс. (1,00 видеокадр)
Время предзагрузки промежутка : 500 мс.



Ссылка Она придёт сегодня ночью / Tonight She Comes (HDRip) скачать торрент Ужасы - Торрент-Трекер находится под похожими раздачами Download Torrent
Она придёт сегодня ночью / Tonight She Comes (HDRip) скачать торрент Ужасы - Торрент-Трекер
Скриншоты Она придёт сегодня ночью / Tonight She Comes

скачать торрент, Игры на PC, Download Torrent, мультфильм, фильм, hdrip, Ужасы
Добавил: SxS | Просмотров: 12 | Рейтинг: 0.0/0
Добавлять комментарии могут только зарегистрированные пользователи.
[ Регистрация | Вход ]
Ужасы [56]
Horrors
Фантастика [58]
Fantastic
Боевик [66]
Action
Триллер [53]
Thriller
Криминал [2]
Crime
Военный [2]
Military
Вестерн [7]
Western
Документальный [6]
Documentary
Биография [2]
Biography
Драма [188]
Drama
Мелодрама [12]
Melodrama
Комедия [49]
Comedy
Мюзикл [3]
Musical
Приключения [5]
Adventure
Пародия [3]
Parody
Мультфильмы [13]
Cartoons
Мультсериал [1]
Animated series
Аниме [2]
Anime
Форма входа
Поиск
Лучшие раздачи