Приветствую Вас Гость

World of Warships [SOI] RU+CIS
Торрент-Трекер » HDRip » Ужасы

Окровавленные губы / Levres de sang (HDRip) скачать торрент

[ ]



Окровавленные губы / Levres de sang (HDRip) скачать торрент Ужасы - Торрент-Трекер

Информация о фильме
Название: Окровавленные губы
Оригинальное название: Les levres de sang / Lips of Blood
Год выхода: 1975
Жанр: Ужасы, детектив, эротика
Режиссер: Жан Роллен
В ролях: Жан-Луп Филипп, Анни Бель, Натали Перри, Мартин Гримо, Катрин Кастель, Мари-Пьер Кастель, Анита Берглунд, Клодин Беккари, Беатрис Хэрнойс

О фильме: На вечеринке Фредерик увидел фотографию древнего замка, которая вызвала у него смутные воспоминания из детства о загадочной девушке в белом. Он решил обязательно найти это место, но снявшая его дама-фотограф была убита, его самого поместили в психушку. Но на выручку Фредерику явились девочки-вампиры, которых он освободил, преследуя призрак девушки в белом.

Страна: Франция
Продолжительность: 01:26:52
Перевод: Любительский (одноголосый, закадровый)
Субтитры: Нет

Файл
Кодек: XviD
Качество: HDRip
Видео: 720x432 (1.67:1), 23.976 fps, XviD build 73 ~1061 kbps avg, 0.14 bit/pixel
Звук: 48 kHz, MPEG Layer 3, 2 ch, ~128.00 kbps avg

MediaInfo
General
Complete name: Lips.of.Blood.1975.HDRip.ot.Portablius.avi
Format: AVI
Format/Info: Audio Video Interleave
File size: 745 MiB
Duration: 1 h 26 min
Overall bit rate: 1 199 kb/s
Writing application: VirtualDubMod 1.5.10.3 | www.virtualdub-fr.org || (build 2550/release)
Writing library: VirtualDubMod build 2550/release

Video
ID: 0
Format: MPEG-4 Visual
Format profile: Advanced Simple@L5
Format settings, BVOP: 1
Format settings, QPel: No
Format settings, GMC: No warppoints
Format settings, Matrix: Custom
Codec ID: XVID
Codec ID/Hint: XviD
Duration: 1 h 26 min
Bit rate: 1 062 kb/s
Width: 720 pixels
Height: 432 pixels
Display aspect ratio: 5:3
Frame rate: 23.976 (24000/1001) FPS
Color space: YUV
Chroma subsampling: 4:2:0
Bit depth: 8 bits
Scan type: Progressive
Compression mode: Lossy
Bits/(Pixel*Frame): 0.142
Stream size: 660 MiB (89%)
Writing library: XviD 73

Audio
ID: 1
Format: MPEG Audio
Format version: Version 1
Format profile: Layer 3
Codec ID: 55
Codec ID/Hint: MP3
Duration: 1 h 26 min
Bit rate mode: Constant
Bit rate: 128 kb/s
Channel(s): 2 channels
Sampling rate: 48.0 kHz
Compression mode: Lossy
Stream size: 79.5 MiB (11%)
Alignment: Aligned on interleaves
Interleave, duration: 42 ms (1.00 video frame)
Interleave, preload duratio: 504 ms
Writing library: LAME3.99r
Encoding settings: -m s -V 4 -q 2 -lowpass 17 -b 1
Ссылка Окровавленные губы / Levres de sang (HDRip) скачать торрент Ужасы - Торрент-Трекер находится под похожими раздачами Download Torrent
Окровавленные губы / Levres de sang (HDRip) скачать торрент Ужасы - Торрент-Трекер
Скриншоты Окровавленные губы / Levres de sang

скачать торрент, Игры на PC, Download Torrent, мультфильм, фильм, hdrip, Ужасы
Добавил: SxS | Просмотров: 26 | Загрузок: 1 | Рейтинг: 0.0/0
Добавлять комментарии могут только зарегистрированные пользователи.
[ Регистрация | Вход ]
Ужасы [101]
Horrors
Фантастика [87]
Fantastic
Боевик [101]
Action
Триллер [104]
Thriller
Криминал [3]
Crime
Военный [2]
Military
Вестерн [11]
Western
Документальный [6]
Documentary
Биография [4]
Biography
Драма [264]
Drama
Мелодрама [24]
Melodrama
Комедия [77]
Comedy
Мюзикл [7]
Musical
Приключения [13]
Adventure
Пародия [6]
Parody
Мультфильмы [23]
Cartoons
Мультсериал [1]
Animated series
Аниме [2]
Anime
Форма входа
Поиск
Лучшие раздачи