Приветствую Вас Гость

World of Warships [SOI] RU+CIS
Торрент-Трекер » HDRip » Ужасы

Лихорадка: Пациент Зеро / Cabin Fever: Patient Zero (HDRip) скачать торрент

[ ]



Лихорадка: Пациент Зеро / Cabin Fever: Patient Zero (HDRip) скачать торрент Ужасы - Торрент-Трекер

Информация о фильме
Название: Лихорадка: Пациент Зеро
Оригинальное название: Cabin Fever: Patient Zero
Год выхода: 2014
Жанр: ужасы
Режиссер: Кааре Эндрюс
В ролях: Шон Эстин, Карри Грэм, Райан Доноху, Брандо Итон, Джиллиан Мюррэй, Митч Райан, Солли Дюран, Лидия Хёрст, Клодетт Лали
Ernesto Baez

О фильме: Молодая компания отправляется на Карибские острова, чтобы оттянуться перед свадьбой одного из друзей. Но на берегу лазурного океана, посреди вечного лета и райского блаженства ребята обнаруживают очаг смертоносной болезни… Вскоре начинается отчет жертв… Удастся ли кому-нибудь выжить?

Страна: США
Продолжительность: 01:34:50
Перевод: Любительский (двухголосый, закадровый) [den904 и DeadSno]
Субтитры: Нет

Файл
Кодек: XviD
Качество: HDRip
Видео: 720x304 (2.37:1), 23.976 fps, XviD build 73 ~894 kbps avg, 0.17 bit/pixel
Звук: 48 kHz, MPEG Layer 3, 2 ch, ~128.00 kbps avg

MediaInfo
General
Complete name: Cabin.Fever.Patient.Zero.2014.HDRip.ot.Portablius.avi
Format: AVI
Format/Info: Audio Video Interleave
File size: 700 MiB
Duration: 1 h 34 min
Overall bit rate: 1 032 kb/s
Writing application: VirtualDubMod 1.5.10.3 | www.virtualdub-fr.org || (build 2550/release)
Writing library: VirtualDubMod build 2550/release

Video
ID: 0
Format: MPEG-4 Visual
Format profile: Advanced Simple@L5
Format settings, BVOP: 1
Format settings, QPel: No
Format settings, GMC: No warppoints
Format settings, Matrix: Custom
Codec ID: XVID
Codec ID/Hint: XviD
Duration: 1 h 34 min
Bit rate: 895 kb/s
Width: 720 pixels
Height: 304 pixels
Display aspect ratio: 2.35:1
Frame rate: 23.976 (24000/1001) FPS
Color space: YUV
Chroma subsampling: 4:2:0
Bit depth: 8 bits
Scan type: Progressive
Compression mode: Lossy
Bits/(Pixel*Frame): 0.170
Stream size: 607 MiB (87%)
Writing library: XviD 73

Audio
ID: 1
Format: MPEG Audio
Format version: Version 1
Format profile: Layer 3
Mode: Joint stereo
Mode extension: MS Stereo
Codec ID: 55
Codec ID/Hint: MP3
Duration: 1 h 34 min
Bit rate mode: Constant
Bit rate: 128 kb/s
Channel(s): 2 channels
Sampling rate: 48.0 kHz
Compression mode: Lossy
Stream size: 86.8 MiB (12%)
Alignment: Aligned on interleaves
Interleave, duration: 42 ms (1.00 video frame)
Interleave, preload duratio: 504
Ссылка Лихорадка: Пациент Зеро / Cabin Fever: Patient Zero (HDRip) скачать торрент Ужасы - Торрент-Трекер находится под похожими раздачами Download Torrent
Лихорадка: Пациент Зеро / Cabin Fever: Patient Zero (HDRip) скачать торрент Ужасы - Торрент-Трекер
Скриншоты Лихорадка: Пациент Зеро / Cabin Fever: Patient Zero

скачать торрент, Игры на PC, Download Torrent, мультфильм, фильм, hdrip, Ужасы
Добавил: SxS | Просмотров: 33 | Рейтинг: 0.0/0
Добавлять комментарии могут только зарегистрированные пользователи.
[ Регистрация | Вход ]
Ужасы [96]
Horrors
Фантастика [82]
Fantastic
Боевик [94]
Action
Триллер [100]
Thriller
Криминал [3]
Crime
Военный [2]
Military
Вестерн [11]
Western
Документальный [6]
Documentary
Биография [3]
Biography
Драма [244]
Drama
Мелодрама [23]
Melodrama
Комедия [71]
Comedy
Мюзикл [5]
Musical
Приключения [13]
Adventure
Пародия [6]
Parody
Мультфильмы [22]
Cartoons
Мультсериал [1]
Animated series
Аниме [2]
Anime
Форма входа
Поиск
Лучшие раздачи