Приветствую Вас Гость

Total War: ARENA
Торрент-Трекер » HDRip » Ужасы

Лепрекон 6: Домой / Leprechaun: Back 2 tha Hood (HDRip) скачать торрент

[ Раздача закрыта по требованию правообладателя ]



Лепрекон 6: Домой / Leprechaun: Back 2 tha Hood (HDRip) скачать торрент Ужасы - Торрент-Трекер

Страна: США
Год выпуска: 2003
Жанр: ужасы
Продолжительность: 01:29:54
Перевод: Профессиональный (двухголосый закадровый)
Cубтитры: нет

Режиссер: Стивен Агромлуи / Steven Ayromlooi

В ролях: Уорвик Дэвис, Танги Миллер, Лас Алонсо, Пейдж Кеннеди, Стики Фингез

Описание: Негритянский квартал… Банда молодых ниггеров без гроша в кармане промышляют мелкими кражами. Случай сводит их с небольшим сундучком золота. Сундучок оказался странным — Золото не убывало, несмотря на траты банды. Началась веселая беззаботная жизнь… пока не нашелся Хозяин этого золота…

Качество видео: HDRip [WEB-DL 720p]
Формат видео: AVI
Видео кодек: XviD
Аудио кодек: MP3
Видео: 656x368 (1.78:1), 23.976 fps, XviD build 73 ~1021 kbps avg, 0.18 bit/pixel
Аудио: 48 kHz, MPEG Layer 3, 2 ch, ~128.00 kbps avg
Раздача от:


MI
D:Мои рипыLeprechaun.Back.2.tha.Hood.2002.HDRip.745mb.dexter_lex.avi
General
Complete name : D:Мои рипыLeprechaun.Back.2.tha.Hood.2002.HDRip.745mb.dexter_lex.avi
Format : AVI
Format/Info : Audio Video Interleave
File size : 745 MiB
Duration : 1h 29mn
Overall bit rate : 1 158 Kbps
Writing application : VirtualDubMod 1.5.10.3 | www.virtualdub-fr.org || (build 2550/release)
Writing library : VirtualDubMod build 2550/release
Video #0
ID : 0
Format : MPEG-4 Visual
Format profile : Advanced Simple@L5
Format settings, BVOP : 1
Format settings, QPel : No
Format settings, GMC : No warppoints
Format settings, Matrix : Custom
Codec ID : XVID
Codec ID/Hint : XviD
Duration : 1h 29mn
Bit rate : 1 021 Kbps
Width : 656 pixels
Height : 368 pixels
Display aspect ratio : 16:9
Frame rate : 23.976 fps
Color space : YUV
Chroma subsampling : 4:2:0
Bit depth : 8 bits
Scan type : Progressive
Compression mode : Lossy
Bits/(Pixel*Frame) : 0.176
Stream size : 657 MiB (88%)
Writing library : XviD 73
Audio #1
ID : 1
Format : MPEG Audio
Format version : Version 1
Format profile : Layer 3
Codec ID : 55
Codec ID/Hint : MP3
Duration : 1h 29mn
Bit rate mode : Constant
Bit rate : 128 Kbps
Channel(s) : 2 channels
Sampling rate : 48.0 KHz
Compression mode : Lossy
Stream size : 82.0 MiB (11%)
Alignment : Aligned on interleaves
Interleave, duration : 42 ms (1.00 video frame)
Interleave, preload duration : 504 ms
Writing library : LAME3.99r
Encoding settings : -m s -V 4 -q 2 -lowpass 17 -b 128

ЗалилcontineNt
Ссылка Лепрекон 6: Домой / Leprechaun: Back 2 tha Hood (HDRip) скачать торрент Ужасы - Торрент-Трекер находится под похожими раздачами Download Torrent
Лепрекон 6: Домой / Leprechaun: Back 2 tha Hood (HDRip) скачать торрент Ужасы - Торрент-Трекер
Скриншоты Лепрекон 6: Домой / Leprechaun: Back 2 tha Hood

скачать торрент, Игры на PC, Download Torrent, мультфильм, фильм, hdrip, Ужасы
Добавил: SxS | Просмотров: 20 | Загрузок: 3 | Рейтинг: 0.0/0
Добавлять комментарии могут только зарегистрированные пользователи.
[ Регистрация | Вход ]
Ужасы [56]
Horrors
Фантастика [58]
Fantastic
Боевик [66]
Action
Триллер [54]
Thriller
Криминал [2]
Crime
Военный [2]
Military
Вестерн [7]
Western
Документальный [6]
Documentary
Биография [2]
Biography
Драма [188]
Drama
Мелодрама [12]
Melodrama
Комедия [50]
Comedy
Мюзикл [3]
Musical
Приключения [5]
Adventure
Пародия [3]
Parody
Мультфильмы [13]
Cartoons
Мультсериал [1]
Animated series
Аниме [2]
Anime
Форма входа
Поиск
Лучшие раздачи