Приветствую Вас Гость

Total War: ARENA
Торрент-Трекер » HDRip » Ужасы

Квартира 212 / Apartment 212 / Gnaw (HDRip) скачать торрент

[ Раздача закрыта по требованию правообладателя ]



Квартира 212 / Apartment 212 / Gnaw (HDRip) скачать торрент Ужасы - Торрент-Трекер

Информация о фильме
Название:Квартира 212
Оригинальное название:Apartment 212 / Gnaw

Год выхода:2017
Жанр:Ужасы
Режиссер:Хейлар Гарсиа
В ролях:Сэлли Кёркленд, Пенелопа Митчелл, Крис Дж. Джонсон, Кайл Гэсс, Ан Нуу Нгуйен, Дэн Дэвидсон, Кристин Китинг, Грэм Эммонс, Кэтрин Гулд, Нельсон Гофорт и другие
О фильме:
Сбегая от плохих отношений Дженнифер Конрад, пытается начать новую жизнь. Но это сложно сделать, когда каждую ночь тебя кто-то кусает...

Страна:Испания, США, Unreal Media, Wrecking Ball Pictures
Продолжительность:01:38:40
Перевод:Любительский (двухголосый закадровый) | HiWay Grope

Файл
Кодек:XviD
Качество:HDRip
Видео:720x304, 23.976 fps, ~1648 kbps, 0.31 bit/pixel
Звук:
Аудио rus:AC3, 48 kHz, 2 ch, 192 Kbps
Субтитры:отсутствуют

Реклама: присутствует

Семпл

ВНИМАНИЕ! Присутствует ненормативная лексика

MediaInfo: General
Complete name : E:Apartment.212.2017.HDRip.HiWayGropeApartment.212.2017.HDRip.HiWayGrope.avi
Format : AVI
Format/Info : Audio Video Interleave
File size : 1.28 GiB
Duration : 1h 38mn
Overall bit rate : 1 850 Kbps
Writing application : VirtualDubMod 1.5.10.3 (build 2550/release)
Writing library : VirtualDubMod build 2550/release

Video
ID : 0
Format : MPEG-4 Visual
Format profile : Advanced Simple@L5
Format settings, BVOP : 1
Format settings, QPel : No
Format settings, GMC : No warppoints
Format settings, Matrix : Default (MPEG)
Codec ID : XVID
Codec ID/Hint : XviD
Duration : 1h 38mn
Bit rate : 1 648 Kbps
Width : 720 pixels
Height : 304 pixels
Display aspect ratio : 2.35:1
Frame rate : 23.976 (23976/1000) fps
Color space : YUV
Chroma subsampling : 4:2:0
Bit depth : 8 bits
Scan type : Progressive
Compression mode : Lossy
Bits/(Pixel*Frame) : 0.314
Stream size : 1.14 GiB (89%)
Writing library : XviD 73

Audio
ID : 1
Format : AC-3
Format/Info : Audio Coding 3
Mode extension : CM (complete main)
Format settings, Endianness : Big
Codec ID : 2000
Duration : 1h 38mn
Bit rate mode : Constant
Bit rate : 192 Kbps
Channel(s) : 2 channels
Channel positions : Front: L R
Sampling rate : 48.0 KHz
Frame rate : 31.250 fps (1536 spf)
Compression mode : Lossy
Stream size : 136 MiB (10%)
Alignment : Split accross interleaves
Interleave, duration : 42 ms (1.00 video frame)
Interleave, preload duration : 500 ms



Релиз от: HiWay Grope Залилskyn s61
Ссылка Квартира 212 / Apartment 212 / Gnaw (HDRip) скачать торрент Ужасы - Торрент-Трекер находится под похожими раздачами Download Torrent
Квартира 212 / Apartment 212 / Gnaw (HDRip) скачать торрент Ужасы - Торрент-Трекер
Скриншоты Квартира 212 / Apartment 212 / Gnaw

скачать торрент, Игры на PC, Download Torrent, мультфильм, фильм, hdrip, Ужасы
Добавил: SxS | Просмотров: 15 | Загрузок: 1 | Рейтинг: 0.0/0
Добавлять комментарии могут только зарегистрированные пользователи.
[ Регистрация | Вход ]
Ужасы [56]
Horrors
Фантастика [58]
Fantastic
Боевик [66]
Action
Триллер [54]
Thriller
Криминал [2]
Crime
Военный [2]
Military
Вестерн [7]
Western
Документальный [6]
Documentary
Биография [2]
Biography
Драма [188]
Drama
Мелодрама [12]
Melodrama
Комедия [50]
Comedy
Мюзикл [3]
Musical
Приключения [5]
Adventure
Пародия [3]
Parody
Мультфильмы [13]
Cartoons
Мультсериал [1]
Animated series
Аниме [2]
Anime
Форма входа
Поиск
Лучшие раздачи