Приветствую Вас Гость

SAO's Legend
Торрент-Трекер » HDRip » Ужасы

Хэвенхёрст / Havenhurst (HDRip) скачать торрент

[ Раздача закрыта по требованию правообладателя ]



Хэвенхёрст / Havenhurst (HDRip) скачать торрент

Информация о фильме
Название:Хэвенхёрст
Оригинальное название:Havenhurst
Год выхода:2016
Жанр:Ужасы, триллер, детектив
Режиссер:Эндрю С. Эрин
В ролях:Джули Бенц, Фионнула Флэнаган, Белль Шусе, Джош Стэмберг, Даниэль Харрис, Дендри Тейлор, Тоби Хасс, Дуглас Тейт, Мэтт Ласки, Дженнифер Бланк

О фильме:Главная героиня фильма ужасов – алкоголичка Джеки, которая выходит из реабилитационного центра, куда она попала, потеряв свою маленькую дочь. Получив шанс начать жизнь с чистого листа, она устраивается на новую работу и заселяется в многоквартирный жилой комплекс «Хэвенхёрст», расположенный в самом центре Нью-Йорка. Но вскоре Джеки осознает, что всё складывается совсем не так гладко, как она предполагала. Оказывается, «Хэвенхёрст» – место, которое хранит страшные тайны, его жильцы мистическим образом пропадают из своих квартир, а любой попавший сюда никогда не выберется живым.

Страна:США
Студия:Protocol Entertainment, Twisted Pictures, Parismony Pictures
Продолжительность:01:21:12
Перевод:Дублированный | 'Мосфильм - мастер'
Субтитры:Нет

Файл
Кодек:XviD
Качество:HDRip
Видео:720x304 (2.37:1), 25 fps, XviD build 73 ~1066 kbps avg, 0.20 bit/pixel
Звук:48 kHz, MPEG Layer 3, 2 ch, ~128.00 kbps avg

MediaInfo
General
Complete name : Havenhurst.2016.HDRip.ot.Portablius.avi
Format : AVI
Format/Info : Audio Video Interleave
File size : 696 MiB
Duration : 1 h 21 min
Overall bit rate : 1 198 kb/s
Writing application : VirtualDubMod 1.5.10.3 | www.virtualdub-fr.org || (build 2550/release)
Writing library : VirtualDubMod build 2550/release

Video
ID : 0
Format : MPEG-4 Visual
Format profile : Advanced Simple@L5
Format settings, BVOP : 1
Format settings, QPel : No
Format settings, GMC : No warppoints
Format settings, Matrix : Custom
Codec ID : XVID
Codec ID/Hint : XviD
Duration : 1 h 21 min
Bit rate : 1 067 kb/s
Width : 720 pixels
Height : 304 pixels
Display aspect ratio : 2.35:1
Frame rate : 25.000 FPS
Color space : YUV
Chroma subsampling : 4:2:0
Bit depth : 8 bits
Scan type : Progressive
Compression mode : Lossy
Bits/(Pixel*Frame) : 0.195
Stream size : 620 MiB (89%)
Writing library : XviD 73

Audio
ID : 1
Format : MPEG Audio
Format version : Version 1
Format profile : Layer 3
Codec ID : 55
Codec ID/Hint : MP3
Duration : 1 h 17 min
Bit rate mode : Constant
Bit rate : 128 kb/s
Channel(s) : 2 channels
Sampling rate : 48.0 kHz
Compression mode : Lossy
Stream size : 70.6 MiB (10%)
Alignment : Aligned on interleaves
Interleave, duration : 42 ms (1.05 video frame)
Interleave, preload duratio : 504 ms
Writing library : LAME3.99r
Encoding settings : -m s -V 4 -q 2 -lowpass 17 -b 128


ЗалилEvgen Portable
Ссылка Хэвенхёрст / Havenhurst (HDRip) скачать торрент находится под похожими раздачами Download Torrent
Хэвенхёрст / Havenhurst (HDRip) скачать торрент
Скриншоты Хэвенхёрст / Havenhurst

скачать торрент, Игры на PC, Download Torrent, мультфильм, фильм, hdrip, Ужасы
Добавил: SxS | Просмотров: 10 | Рейтинг: 0.0/0
Добавлять комментарии могут только зарегистрированные пользователи.
[ Регистрация | Вход ]
Ужасы [55]
Horrors
Фантастика [57]
Fantastic
Боевик [66]
Action
Триллер [53]
Thriller
Криминал [1]
Crime
Военный [2]
Military
Вестерн [7]
Western
Документальный [6]
Documentary
Биография [1]
Biography
Драма [184]
Drama
Мелодрама [11]
Melodrama
Комедия [48]
Comedy
Мюзикл [3]
Musical
Приключения [4]
Adventure
Пародия [3]
Parody
Мультфильмы [13]
Cartoons
Мультсериал [1]
Animated series
Аниме [2]
Anime
Форма входа
Поиск
Лучшие раздачи