Приветствую Вас Гость

Total War: ARENA
Торрент-Трекер » HDRip » Ужасы

Истерия / Delirium (HDRip) скачать торрент

[ Раздача закрыта по требованию правообладателя ]



Истерия / Delirium (HDRip) скачать торрент Ужасы - Торрент-Трекер

Информация о фильме
Название: Истерия
Оригинальное название: Delirium
Год выпуска: 2018
Страна: США
Жанр: ужасы, триллер
Перевод: Дубляж - [Лицензия]
Субтитры: Русские (полные) - отдельным файлом
Продолжительность: 01:35:59
Режиссер: Дэннис Илиадис
В ролях: Дженезис Родригез (Lynn), Тофер Грейс (Tom), Патриша Кларксон (Brody), Каллэн Мулвей (Alex), Робин Томас (Father), Дэйзи МакКрэкин (Mother), Келли Барксдэйл (Teenage girl), Браден Фицджералд (Young Tom), Коуди Салливан (Young Alex), Марти Эли Шварц (Frank)

Описание:
Бывший пациент клиники для душевнобольных возвращается в роскошный особняк, доставшийся ему после смерти родителей. В этом доме прошло все его детство, и с ним связано много ярких воспоминаний. Но со временем в доме начинают происходить странные и пугающие вещи. Или это все - в его голове?
Рейтинг:

MPAA: R - Лицам до 17 лет обязательно присутствие взрослого
Качество: HDRip
Формат: AVI
Видео: XviD, 704x384 (1.85:1), 2146 kbps, 24 fps, 0,331 bpp
Аудио №1: AC3 / 5.1 / 48 kHz / 448 kbps - Русский
Аудио №2: AC3 / 5.1 / 48 kHz / 448 kbps - Английский

ОтчетМедиаИнфо

General
Complete name: F:Delirium.2018.Dub.HDRip.R.G.ResidentDelirium.2018.Dub.HDRip.R.G.Resident.avi
Format: AVI
Format/Info: Audio Video Interleave
Format profile: OpenDML
File size: 2.05 GiB
Duration: 1 h 35 min
Overall bit rate: 3 061 kb/s
Writing application: VirtualDubModRus 1.5.10.2 (build 2542/release)
Writing library: VirtualDubMod build 2542/release

Video
ID: 0
Format: MPEG-4 Visual
Format profile: Advanced Simple@L5
Format settings, BVOP: 1
Format settings, QPel: No
Format settings, GMC: No warppoints
Format settings, Matrix: Custom
Codec ID: XVID
Codec ID/Hint: XviD
Duration: 1 h 35 min
Bit rate: 2 147 kb/s
Width: 704 pixels
Height: 384 pixels
Display aspect ratio: 1.85:1
Frame rate: 24.000 FPS
Color space: YUV
Chroma subsampling: 4:2:0
Bit depth: 8 bits
Scan type: Progressive
Compression mode: Lossy
Bits/(Pixel*Frame): 0.331
Stream size: 1.44 GiB (70%)
Writing library: XviD 73

Audio #1
ID: 1
Format: AC-3
Format/Info: Audio Coding 3
Mode extension: CM (complete main)
Format settings, Endianness: Big
Codec ID: 2000
Duration: 1 h 35 min
Bit rate mode: Constant
Bit rate: 448 kb/s
Channel(s): 6 channels
Channel positions: Front: L C R, Side: L R, LFE
Sampling rate: 48.0 kHz
Frame rate: 31.250 FPS (1536 spf)
Compression mode: Lossy
Stream size: 308 MiB (15%)
Alignment: Split accross interleaves
Interleave, duration: 42 ms (1.00 video frame)
Interleave, preload duration: 500 ms

Audio #2
ID: 2
Format: AC-3
Format/Info: Audio Coding 3
Mode extension: CM (complete main)
Format settings, Endianness: Big
Codec ID: 2000
Duration: 1 h 35 min
Bit rate mode: Constant
Bit rate: 448 kb/s
Channel(s): 6 channels
Channel positions: Front: L C R, Side: L R, LFE
Sampling rate: 48.0 kHz
Frame rate: 31.250 FPS (1536 spf)
Compression mode: Lossy
Stream size: 308 MiB (15%)
Alignment: Split accross interleaves
Interleave, duration: 42 ms (1.00 video frame)
Interleave, preload duration: 500
Ссылка Истерия / Delirium (HDRip) скачать торрент Ужасы - Торрент-Трекер находится под похожими раздачами Download Torrent
Истерия / Delirium (HDRip) скачать торрент Ужасы - Торрент-Трекер
Скриншоты Истерия / Delirium

скачать торрент, Игры на PC, Download Torrent, мультфильм, фильм, hdrip, Ужасы
Добавил: SxS | Просмотров: 18 | Рейтинг: 0.0/0
Добавлять комментарии могут только зарегистрированные пользователи.
[ Регистрация | Вход ]
Ужасы [57]
Horrors
Фантастика [58]
Fantastic
Боевик [66]
Action
Триллер [54]
Thriller
Криминал [2]
Crime
Военный [2]
Military
Вестерн [7]
Western
Документальный [6]
Documentary
Биография [2]
Biography
Драма [189]
Drama
Мелодрама [12]
Melodrama
Комедия [51]
Comedy
Мюзикл [3]
Musical
Приключения [5]
Adventure
Пародия [4]
Parody
Мультфильмы [13]
Cartoons
Мультсериал [1]
Animated series
Аниме [2]
Anime
Форма входа
Поиск
Лучшие раздачи