Приветствую Вас Гость

Total War: ARENA
Торрент-Трекер » HDRip » Ужасы

Глаза холмов / Eyes In The Hills (HDRip) скачать торрент

[ Раздача закрыта по требованию правообладателя ]



Глаза холмов / Eyes In The Hills (HDRip) скачать торрент Ужасы - Торрент-Трекер

Информация о фильме
Название:Глаза холмов
Оригинальное название:Eyes In The Hills
Год выхода:2018
Жанр:Ужасы
Режиссер:Боб Брэгг
В ролях:Хейли Клируотер, Девин Роан
О фильме:
Отвергнутый любовник под предлогом дружеского похода в горы заманивает свою бывшую в лес, чтобы отомстить ей, однако там их обоих ждёт нечто более пугающее, чем страдания разбитого сердца.

Страна:США
Продолжительность:01:11:10
Перевод:Любительский (двухголосый закадровый) | HiWay Grope

Файл
Кодек:XviD
Качество:WEBRip
Видео:720x400, 23.976 fps, ~1787 kbps, 0.26 bit/pixel
Звук:
Аудио rus:AC3, 48 kHz, 2 ch, 192 Kbps
Субтитры:отсутствуют

Реклама: присутствует

Семпл

MediaInfo: General
Complete name : D:Eyes.In.The.2018.HDRip.HiWayGropeEyes.In.The. Hills.2018.HDRip.HiWayGrope.avi
Format : AVI
Format/Info : Audio Video Interleave
File size : 1 013 MiB
Duration : 1h 11mn
Overall bit rate : 1 989 Kbps
Writing application : VirtualDubMod 1.5.10.3 (build 2550/release)
Writing library : VirtualDubMod build 2550/release

Video
ID : 0
Format : MPEG-4 Visual
Format profile : Advanced Simple@L5
Format settings, BVOP : 1
Format settings, QPel : No
Format settings, GMC : No warppoints
Format settings, Matrix : Default (MPEG)
Codec ID : XVID
Codec ID/Hint : XviD
Duration : 1h 11mn
Bit rate : 1 788 Kbps
Width : 720 pixels
Height : 400 pixels
Display aspect ratio : 16:9
Frame rate : 23.976 (23976/1000) fps
Color space : YUV
Chroma subsampling : 4:2:0
Bit depth : 8 bits
Scan type : Progressive
Compression mode : Lossy
Bits/(Pixel*Frame) : 0.259
Stream size : 910 MiB (90%)
Writing library : XviD 73

Audio
ID : 1
Format : AC-3
Format/Info : Audio Coding 3
Mode extension : CM (complete main)
Format settings, Endianness : Big
Codec ID : 2000
Duration : 1h 11mn
Bit rate mode : Constant
Bit rate : 192 Kbps
Channel(s) : 2 channels
Channel positions : Front: L R
Sampling rate : 48.0 KHz
Frame rate : 31.250 fps (1536 spf)
Compression mode : Lossy
Stream size : 97.8 MiB (10%)
Alignment : Split accross interleaves
Interleave, duration : 42 ms (1.00 video frame)
Interleave, preload duration : 500 ms



Релиз от: HiWay Grope ЗалилFrontier_guard
Ссылка Глаза холмов / Eyes In The Hills (HDRip) скачать торрент Ужасы - Торрент-Трекер находится под похожими раздачами Download Torrent
Глаза холмов / Eyes In The Hills (HDRip) скачать торрент Ужасы - Торрент-Трекер
Скриншоты Глаза холмов / Eyes In The Hills

скачать торрент, Игры на PC, Download Torrent, мультфильм, фильм, hdrip, Ужасы
Добавил: SxS | Просмотров: 11 | Рейтинг: 0.0/0
Добавлять комментарии могут только зарегистрированные пользователи.
[ Регистрация | Вход ]
Ужасы [56]
Horrors
Фантастика [58]
Fantastic
Боевик [66]
Action
Триллер [54]
Thriller
Криминал [2]
Crime
Военный [2]
Military
Вестерн [7]
Western
Документальный [6]
Documentary
Биография [2]
Biography
Драма [188]
Drama
Мелодрама [12]
Melodrama
Комедия [50]
Comedy
Мюзикл [3]
Musical
Приключения [5]
Adventure
Пародия [3]
Parody
Мультфильмы [13]
Cartoons
Мультсериал [1]
Animated series
Аниме [2]
Anime
Форма входа
Поиск
Лучшие раздачи