Приветствую Вас Гость

Total War: ARENA
Торрент-Трекер » HDRip » Фантастика

Валериан и город тысячи планет / Valerian and the City of a Thousand Planets (HDRip) скачать торрент

[ Раздача закрыта по требованию правообладателя ]



Валериан и город тысячи планет / Valerian and the City of a Thousand Planets (HDRip) скачать торрент Фантастика - Торрент-Трекер


Информация о фильме
Название: Валериан и город тысячи планет
Оригинальное название: Valerian and the City of a Thousand Planets
Страна: Франция, Китай, Бельгия, Германия, ОАЭ, США
Жанр: фантастика, фэнтези, боевик, приключения
Год выпуска: 2017
Продолжительность: 02:16:39
Перевод 1: Авторский (одноголосый закадровый) Ю. Сербин
Перевод 2: Авторский (одноголосый закадровый) А. Гаврилов
Субтитры: нет

Режиссер: Люк Бессон / Luc Besson

В ролях: Дэйн ДеХаан, Кара Делевинь, Клайв Оуэн, Рианна, Итэн Хоук, Херби Хэнкок, Крис У, Сэм Спруэлл, Ален Шаба, Рутгер Хауэр.

Описание: В 28-м столетии Валериан и Лорелин являются группой специальных агентов, задачей которых является поддержка порядка во всех подконтрольных человечеству территориях. По заданию министра обороны они отправляются в город Альфа – постоянно расширяющийся мегаполис, где собираются существа со всех уголков мира, чтобы поделиться знаниями и культурой друг с другом. Однако в центре Альфа существует тайна, темная сила, которая угрожает мирному существованию города. Валериану и Лорелин предстоит идентифицировать угрозу и защитить не только Альфу, но и всю вселенную...

Качество видео: HDRip (исходник: BDRip / 1080p)
Формат видео: AVI | Sample
Видео: 720x304 (2.37:1), 23.976 fps, XviD build 73 ~1502 kbps avg, 0.29 bit/pixel
Аудио 1: 48 kHz, AC3 Dolby Digital, 3/2 (L,C,R,l,r) + LFE ch, ~384.00 kbps avg | RUS
Аудио 2: 48 kHz, AC3 Dolby Digital, 3/2 (L,C,R,l,r) + LFE ch, ~384.00 kbps avg | RUS

Инфо
Формат : AVI
Формат/Информация : Audio Video Interleave
Профиль формата : OpenDML
Размер файла : 2,18 Гбайт
Продолжительность : 2 ч. 16 м.
Общий поток : 2287 Кбит/сек
Название фильма : Валериан и город тысячи планет / Valerian and the City of a Thousand Planets (2017)
Программа кодирования : VirtualDubMod 1.5.10.2 (build 2540/release)
Библиотека кодирования : VirtualDubMod build 2540/release
Примечание : HDRip by Seven
Видео
Идентификатор : 0
Формат : MPEG-4 Visual
Профиль формата : Advanced Simple@L5
Настройки формата : BVOP1 / Custom Matrix
Параметр BVOP формата : 1
Параметр QPel формата : Нет
Параметр GMC формата : Без точки перехода
Параметр матрицы формата : Выборочная
Идентификатор кодека : XVID
Идентификатор кодека/Подсказка : XviD
Продолжительность : 2 ч. 16 м.
Битрейт : 1502 Кбит/сек
Ширина : 720 пикселей
Высота : 304 пикселя
Соотношение сторон : 2,35:1
Частота кадров : 23,976 (24000/1001) кадра/сек
Цветовое пространство : YUV
Субдискретизация насыщенности : 4:2:0
Битовая глубина : 8 бит
Тип развёртки : Прогрессивная
Метод сжатия : С потерями
Бит/(Пиксели*Кадры) : 0.286
Размер потока : 1,43 Гбайт (66%)
Библиотека кодирования : XviD 73

Аудио #1
Идентификатор : 1
Формат : AC-3
Формат/Информация : Audio Coding 3
Параметр Endianness формата : Big
Идентификатор кодека : 2000
Продолжительность : 2 ч. 16 м.
Вид битрейта : Постоянный
Битрейт : 384 Кбит/сек
Каналы : 6 каналов
Расположение каналов : Front: L C R, Side: L R, LFE
Частота : 48,0 КГц
Частота кадров : 31,250 кадров/сек (1536 SPF)
Битовая глубина : 16 бит
Метод сжатия : С потерями
Размер потока : 375 Мбайт (17%)
Выравнивание : Разделение по промежуткам
Продолжительность промежутка : 42 мс. (1,00 видеокадр)
Время предзагрузки промежутка : 500 мс.

Аудио #2
Идентификатор : 2
Формат : AC-3
Формат/Информация : Audio Coding 3
Параметр Endianness формата : Big
Идентификатор кодека : 2000
Продолжительность : 2 ч. 16 м.
Вид битрейта : Постоянный
Битрейт : 384 Кбит/сек
Каналы : 6 каналов
Расположение каналов : Front: L C R, Side: L R, LFE
Частота : 48,0 КГц
Частота кадров : 31,250 кадров/сек (1536 SPF)
Битовая глубина : 16 бит
Метод сжатия : С потерями
Размер потока : 375 Мбайт (17%)
Выравнивание : Разделение по промежуткам
Продолжительность промежутка : 42 мс. (1,00 видеокадр)
Время предзагрузки промежутка : 500 мс.
ЗалилSеvеn
Ссылка Валериан и город тысячи планет / Valerian and the City of a Thousand Planets (HDRip) скачать торрент Фантастика - Торрент-Трекер находится под похожими раздачами Download Torrent
Валериан и город тысячи планет / Valerian and the City of a Thousand Planets (HDRip) скачать торрент Фантастика - Торрент-Трекер
Скриншоты Валериан и город тысячи планет / Valerian and the City of a Thousand Planets

скачать торрент, Игры на PC, Download Torrent, мультфильм, фильм, hdrip, Фантастика
Добавил: SxS | Просмотров: 11 | Рейтинг: 0.0/0
Добавлять комментарии могут только зарегистрированные пользователи.
[ Регистрация | Вход ]
Ужасы [56]
Horrors
Фантастика [58]
Fantastic
Боевик [66]
Action
Триллер [54]
Thriller
Криминал [2]
Crime
Военный [2]
Military
Вестерн [7]
Western
Документальный [6]
Documentary
Биография [2]
Biography
Драма [188]
Drama
Мелодрама [12]
Melodrama
Комедия [50]
Comedy
Мюзикл [3]
Musical
Приключения [5]
Adventure
Пародия [3]
Parody
Мультфильмы [13]
Cartoons
Мультсериал [1]
Animated series
Аниме [2]
Anime
Форма входа
Поиск
Лучшие раздачи