Приветствую Вас Гость

Total War: ARENA
Торрент-Трекер » HDRip » Фантастика

Солдат / Soldier (HDRip) скачать торрент

[ Раздача закрыта по требованию правообладателя ]



Солдат / Soldier (HDRip) скачать торрент Фантастика - Торрент-Трекер

Информация о фильме
Название:Солдат
Оригинальное название:Soldier
Год выхода:1998
Жанр:фантастика, боевик, драма
Режиссер:Пол У. С. Андерсон
В ролях:Курт Расселл, Джейсон Скотт Ли, Джейсон Айзекс, Конни Нильсен, Шон Пертуи, Джаред Торн, Тейлор Торн, Марк Бринглсон, Гэри Бьюзи, К.К. Доддс

О фильме:Солдат забирают в армию чуть ли не с пелёнок. Ребёнок попадает в школу военных, где без родителей и всяких скидок на детство из отобранного человеческого материала готовят профессиональных солдат. Одним из таких солдат становится Тодд. До 40 с лишним лет провоевал он, став лучшим в своем отряде. Когда на его космический корабль прислали новичков, которые во всех отношениях должны превосходить ветеранов во главе с полковником, выпускником Вест-Пойнта, последний стравил трёх ветеранов с новым бойцом. Старики проиграли. Их выбросили на свалку далёкой планеты Аркадии, но Тодд выжил. Его выходили местные поселенцы, чей корабль много лет назад совершил на этой планете вынужденную посадку. Тодд остался жить среди них. В его душе были не только страх и дисциплина, как сказал он милой красивой женщине, выходившей его, но и доброта. Когда полковник высадил на планете новых солдат, чтобы испытать их в операции по уничтожению жителей колонии, Тодд доказал, что опыт в сочетании с человеческим фактором стоят гораздо больше, чем генетическая избранность и крепкие мускулы.

Страна:США, Великобритания
Продолжительность:01:38:36
Перевод:Профессиональный (многоголосый, закадровый) 'Варус видео'
Субтитры:Нет

Файл
Кодек:XviD
Качество:HDRip
Видео:720x304 (2.37:1), 23.976 fps, XviD build 73 ~1784 kbps avg, 0.34 bit/pixel
Звук:48 kHz, AC3 Dolby Digital, 2/0 (L,R) ch, ~192 kbps

MediaInfo
General
Complete name : Soldier.1998.HDRip.ot.Portablius.avi
Format : AVI
Format/Info : Audio Video Interleave
File size : 1.37 GiB
Duration : 1 h 38 min
Overall bit rate : 1 986 kb/s
Writing application : VirtualDubMod 1.5.10.3 | www.virtualdub-fr.org || (build 2550/release)
Writing library : VirtualDubMod build 2550/release

Video
ID : 0
Format : MPEG-4 Visual
Format profile : Advanced Simple@L5
Format settings, BVOP : 1
Format settings, QPel : No
Format settings, GMC : No warppoints
Format settings, Matrix : Custom
Codec ID : XVID
Codec ID/Hint : XviD
Duration : 1 h 38 min
Bit rate : 1 784 kb/s
Width : 720 pixels
Height : 304 pixels
Display aspect ratio : 2.35:1
Frame rate : 23.976 (24000/1001) FPS
Original frame rate : 23.976 (23976/1000) FPS
Color space : YUV
Chroma subsampling : 4:2:0
Bit depth : 8 bits
Scan type : Progressive
Compression mode : Lossy
Bits/(Pixel*Frame) : 0.340
Stream size : 1.23 GiB (90%)
Writing library : XviD 73

Audio
ID : 1
Format : AC-3
Format/Info : Audio Coding 3
Format settings, Endianness : Big
Codec ID : 2000
Duration : 1 h 38 min
Bit rate mode : Constant
Bit rate : 192 kb/s
Channel(s) : 2 channels
Channel positions : Front: L R
Sampling rate : 48.0 kHz
Frame rate : 31.250 FPS (1536 spf)
Bit depth : 16 bits
Compression mode : Lossy
Stream size : 135 MiB (10%)
Alignment : Split accross interleaves
Interleave, duration : 42 ms (1.00 video frame)
Interleave, preload duratio : 500 ms
Service kind : Complete Main


ЗалилEvgen Portable
Ссылка Солдат / Soldier (HDRip) скачать торрент Фантастика - Торрент-Трекер находится под похожими раздачами Download Torrent
Солдат / Soldier (HDRip) скачать торрент Фантастика - Торрент-Трекер
Скриншоты Солдат / Soldier

скачать торрент, Игры на PC, Download Torrent, мультфильм, фильм, hdrip, Фантастика
Добавил: SxS | Просмотров: 20 | Загрузок: 2 | Рейтинг: 0.0/0
Добавлять комментарии могут только зарегистрированные пользователи.
[ Регистрация | Вход ]
Ужасы [56]
Horrors
Фантастика [58]
Fantastic
Боевик [66]
Action
Триллер [54]
Thriller
Криминал [2]
Crime
Военный [2]
Military
Вестерн [7]
Western
Документальный [6]
Documentary
Биография [2]
Biography
Драма [188]
Drama
Мелодрама [12]
Melodrama
Комедия [50]
Comedy
Мюзикл [3]
Musical
Приключения [5]
Adventure
Пародия [3]
Parody
Мультфильмы [13]
Cartoons
Мультсериал [1]
Animated series
Аниме [2]
Anime
Форма входа
Поиск
Лучшие раздачи