Приветствую Вас Гость

SAO's Legend
Торрент-Трекер » HDRip » Фантастика

Пророк / Next (HDRip) скачать торрент

[ Раздача закрыта по требованию правообладателя ]



Пророк / Next (HDRip) скачать торрент

Информация о фильме
Название:Пророк
Оригинальное название:Next
Год выхода:2007
Жанр:Фантастика, боевик, триллер
Режиссер:Ли Тамахори
В ролях:Николас Кейдж, Джулианна Мур, Джессика Бил, Томас Кречманн, Тори Киттлз, Хосе Зунига, Джим Бивер, Jason Butler Harner, Майкл Тракко, Энзо Силенти

О фильме:У Криса Джонсона есть секрет, отравляющий его жизнь: он может предсказывать ближайшее будущее. Устав от бесконечного внимания правительства и медицинских центров, пытающихся разгадать природу его удивительных способностей, Крис ложится на дно. Под вымышленным именем он работает в Лас-Вегасе, где развлекает публику дешевыми фокусами. Но когда группа террористов угрожает Лос-Анджелесу, специальному агенту Калли Феррис придется собрать все силы, чтобы разыскать Криса и убедить его помочь предотвратить катастрофу.

Страна:США
Студия:Broken Road Productions
Продолжительность:01:31:48
Перевод:Профессиональный (многоголосый закадровый) | СТС
Субтитры:Нет

Файл
Кодек:XviD
Качество:HDRip
Видео:624x352 (1.77:1), 25 fps, XviD build 73 ~925 kbps avg, 0.17 bit/pixel
Звук:48 kHz, MPEG Layer 3, 2 ch, ~128.00 kbps avg

MediaInfo
General
Complete name : Next.2007.HDRip.OM.ot.Portablius.avi
Format : AVI
Format/Info : Audio Video Interleave
File size : 698 MiB
Duration : 1 h 31 min
Overall bit rate : 1 063 kb/s
Writing application : VirtualDubMod 1.5.10.3 | www.virtualdub-fr.org || (build 2550/release)
Writing library : VirtualDubMod build 2550/release

Video
ID : 0
Format : MPEG-4 Visual
Format profile : Advanced Simple@L5
Format settings, BVOP : 1
Format settings, QPel : No
Format settings, GMC : No warppoints
Format settings, Matrix : Custom
Codec ID : XVID
Codec ID/Hint : XviD
Duration : 1 h 31 min
Bit rate : 926 kb/s
Width : 624 pixels
Height : 352 pixels
Display aspect ratio : 16:9
Frame rate : 25.000 FPS
Color space : YUV
Chroma subsampling : 4:2:0
Bit depth : 8 bits
Scan type : Progressive
Compression mode : Lossy
Bits/(Pixel*Frame) : 0.169
Stream size : 608 MiB (87%)
Writing library : XviD 73

Audio
ID : 1
Format : MPEG Audio
Format version : Version 1
Format profile : Layer 3
Codec ID : 55
Codec ID/Hint : MP3
Duration : 1 h 31 min
Bit rate mode : Constant
Bit rate : 128 kb/s
Channel(s) : 2 channels
Sampling rate : 48.0 kHz
Compression mode : Lossy
Stream size : 84.0 MiB (12%)
Alignment : Aligned on interleaves
Interleave, duration : 40 ms (1.00 video frame)
Interleave, preload duratio : 504 ms
Writing library : LAME3.99r
Encoding settings : -m s -V 4 -q 2 -lowpass 17 -b 128


ЗалилEvgen Portable
Ссылка Пророк / Next (HDRip) скачать торрент находится под похожими раздачами Download Torrent
Пророк / Next (HDRip) скачать торрент
Скриншоты Пророк / Next

скачать торрент, Игры на PC, Download Torrent, мультфильм, фильм, hdrip, Фантастика
Добавил: SxS | Просмотров: 10 | Рейтинг: 0.0/0
Добавлять комментарии могут только зарегистрированные пользователи.
[ Регистрация | Вход ]
Ужасы [55]
Horrors
Фантастика [57]
Fantastic
Боевик [66]
Action
Триллер [53]
Thriller
Криминал [1]
Crime
Военный [2]
Military
Вестерн [7]
Western
Документальный [6]
Documentary
Биография [1]
Biography
Драма [184]
Drama
Мелодрама [11]
Melodrama
Комедия [48]
Comedy
Мюзикл [3]
Musical
Приключения [4]
Adventure
Пародия [3]
Parody
Мультфильмы [13]
Cartoons
Мультсериал [1]
Animated series
Аниме [2]
Anime
Форма входа
Поиск
Лучшие раздачи