Приветствую Вас Гость

World of Warships [SOI] RU+CIS
Торрент-Трекер » HDRip » Фантастика

Патруль времени / Timecop (HDRip) скачать торрент

[ ]



Патруль времени / Timecop (HDRip) скачать торрент Фантастика - Торрент-Трекер

Информация о фильме
Название: Патруль времени
Оригинальное название: Timecop
Год выхода: 1994
Жанр: фантастика, боевик, триллер, мелодрама
Режиссер: Питер Хайамс
В ролях: Жан-Клод Ван Дамм, Миа Сара, Рон Сильвер, Брюс МакГилл, Глория Рубен, Скотт Беллис, Джейсон Шомбинг, Скотт Лоуренс, Кеннет Уэлш, Брент Вулси, Брэд Лори, Шэйн Келли, Ричард Фараси, Стивен Ламберт, Кевин МакНалти, Дж.Дж. Макаро, Ив Камерон, Дэвид Джэкокс, Майк Митчелл, Джейкоб Рапп, Шон О’Бирн, Габриель Роз, Малкольм Стюарт, Альфонсо Квиджада, Ивет Фергюсон, Глен Ролд, Теодор Томас, Лон Кацман, Дункан Фрайзер, Тони Морелли, Ник Хайамс, Келли Фокс, Памела Мартин, Том МакБет, Фрэнк Кассини

О фильме: Передвижения во времени породили новый тип преступлений. Можно изменять события прошлого, контролировать финансовые рынки и даже уничтожать целые народы. Правительство США создает специальное полицейское подразделение — патруль времени. Продажный сенатор, рвущийся к президентскому креслу, отправляется в прошлое, чтобы изменить ход истории. Вслед за ним отправляется полицейский Макс Уокер. Его ждет не только смертельная опасность, но и сильнейшее искушение, ведь, попав в прошлое, он может предотвратить смерть любимой жены…

Страна: Канада, США, Япония
Студия: Dark Horse Entertainment, JVC Entertainment, Largo Entertainment, Largo International N.V., Renaissance Pictures
Продолжительность: 01:37:55
Перевод: Профессиональный (многоголосый, закадровый) (ТК 'Россия' / ТНТ)
Субтитры: Нет

Файл
Кодек: XviD
Качество: HDRip
Видео: 720x304 (2.37:1), 23.976 fps, XviD build 73 ~925 kbps avg, 0.18 bit/pixel
Звук: 48 kHz, MPEG Layer 3, 2 ch, ~128.00 kbps avg

MediaInfo
General
Complete name: Timecop.1994.HDRip.ot.Portablius.avi
Format: AVI
Format/Info: Audio Video Interleave
File size: 744 MiB
Duration: 1 h 37 min
Overall bit rate: 1 063 kb/s
Writing application: VirtualDubMod 1.5.10.3 | www.virtualdub-fr.org || (build 2550/release)
Writing library: VirtualDubMod build 2550/release

Video
ID: 0
Format: MPEG-4 Visual
Format profile: Advanced Simple@L5
Format settings, BVOP: 1
Format settings, QPel: No
Format settings, GMC: No warppoints
Format settings, Matrix: Custom
Codec ID: XVID
Codec ID/Hint: XviD
Duration: 1 h 37 min
Bit rate: 925 kb/s
Width: 720 pixels
Height: 304 pixels
Display aspect ratio: 2.35:1
Frame rate: 23.976 (24000/1001) FPS
Color space: YUV
Chroma subsampling: 4:2:0
Bit depth: 8 bits
Scan type: Progressive
Compression mode: Lossy
Bits/(Pixel*Frame): 0.176
Stream size: 648 MiB (87%)
Writing library: XviD 73

Audio
ID: 1
Format: MPEG Audio
Format version: Version 1
Format profile: Layer 3
Codec ID: 55
Codec ID/Hint: MP3
Duration: 1 h 37 min
Bit rate mode: Constant
Bit rate: 128 kb/s
Channel(s): 2 channels
Sampling rate: 48.0 kHz
Compression mode: Lossy
Stream size: 89.6 MiB (12%)
Alignment: Aligned on interleaves
Interleave, duration: 42 ms (1.00 video frame)
Interleave, preload duratio: 504 ms
Writing library: LAME3.99r
Encoding settings: -m s -V 4 -q 2 -lowpass 17 -b 1
Ссылка Патруль времени / Timecop (HDRip) скачать торрент Фантастика - Торрент-Трекер находится под похожими раздачами Download Torrent
Патруль времени / Timecop (HDRip) скачать торрент Фантастика - Торрент-Трекер
Скриншоты Патруль времени / Timecop

скачать торрент, Игры на PC, Download Torrent, мультфильм, фильм, hdrip, Фантастика
Добавил: SxS | Просмотров: 18 | Рейтинг: 0.0/0
Добавлять комментарии могут только зарегистрированные пользователи.
[ Регистрация | Вход ]
Ужасы [101]
Horrors
Фантастика [86]
Fantastic
Боевик [101]
Action
Триллер [104]
Thriller
Криминал [3]
Crime
Военный [2]
Military
Вестерн [11]
Western
Документальный [6]
Documentary
Биография [4]
Biography
Драма [264]
Drama
Мелодрама [24]
Melodrama
Комедия [77]
Comedy
Мюзикл [7]
Musical
Приключения [13]
Adventure
Пародия [6]
Parody
Мультфильмы [23]
Cartoons
Мультсериал [1]
Animated series
Аниме [2]
Anime
Форма входа
Поиск
Лучшие раздачи