Приветствую Вас Гость

SAO's Legend
Торрент-Трекер » HDRip » Фантастика

Пассажиры / Passengers (HDRip) скачать торрент

[ Раздача закрыта по требованию правообладателя ]



Пассажиры / Passengers (HDRip) скачать торрент


Информация о фильме
Название: Пассажиры
Оригинальное название: Passengers
Год выпуска: 2016
Страна: США / Columbia Pictures
Жанр: фантастика, триллер, драма
Продолжительность: 01:56:10
Перевод: Авторский (одноголосый закадровый) А. Смирнов
Субтитры: нет

Режиссер: Мортен Тильдум / Morten Tyldum

В ролях: Дженнифер Лоуренс, Крис Пратт, Майкл Шин, Лоренс Фишбёрн, Энди Гарсиа, Винс Фостер, Кара Мишель Уайлдер, Конор Брофи, Джули Серда, Аврора Перрино, Кристин Брок, Крис Эджерли.

Описание: Космический корабль с 5 000 пассажирами на борту, погруженных на время полета в искусственный сон, держит курс на планету, которая станет для них новым домом. Всё идет по плану, но из-за сбоя системы двое пассажиров неожиданно просыпаются и понимают, что до конечного пункта путешествия 90 лет пути, и им суждено остаток жизни провести вдвоем в роскошных интерьерах корабля, оснащенного по последнему слову техники. Постепенно Джима и Аврору начинает непреодолимо тянуть друг к другу, но корабль попадает в беду, и теперь в их руках — жизнь и судьба всех обитателей корабля.

Качество видео: HDRip (исходник: BDRip / 1080p)
Формат видео: AVI | Sample
Видео: 720x304 (2.37:1), 23.976 fps, XviD build 73 ~1342 kbps avg, 0.26 bit/pixel
Аудио: 48 kHz, AC3 Dolby Digital, 3/2 (L,C,R,l,r) + LFE ch, ~448.00 kbps avg | RUS

Инфо
Формат : AVI
Формат/Информация : Audio Video Interleave
Размер файла : 1,46 Гбайт
Продолжительность : 1 ч. 56 м.
Общий поток : 1799 Кбит/сек
Название фильма : Пассажиры / Passengers (2016)
Программа кодирования : VirtualDubMod 1.5.10.2 (build 2540/release)
Библиотека кодирования : VirtualDubMod build 2540/release
Примечание : HDRip by Seven

Видео
Идентификатор : 0
Формат : MPEG-4 Visual
Профиль формата : Advanced Simple@L5
Настройки формата : BVOP1 / Custom Matrix
Параметр BVOP формата : 1
Параметр QPel формата : Нет
Параметр GMC формата : Без точки перехода
Параметр матрицы формата : Выборочная
Идентификатор кодека : XVID
Идентификатор кодека/Подсказка : XviD
Продолжительность : 1 ч. 56 м.
Битрейт : 1342 Кбит/сек
Ширина : 720 пикселей
Высота : 304 пикселя
Соотношение сторон : 2,35:1
Частота кадров : 23,976 (24000/1001) кадра/сек
Цветовое пространство : YUV
Субдискретизация насыщенности : 4:2:0
Битовая глубина : 8 бит
Тип развёртки : Прогрессивная
Метод сжатия : С потерями
Бит/(Пиксели*Кадры) : 0.256
Размер потока : 1,09 Гбайт (75%)
Библиотека кодирования : XviD 73

Аудио
Идентификатор : 1
Формат : AC-3
Формат/Информация : Audio Coding 3
Параметр Endianness формата : Big
Идентификатор кодека : 2000
Продолжительность : 1 ч. 56 м.
Вид битрейта : Постоянный
Битрейт : 448 Кбит/сек
Каналы : 6 каналов
Расположение каналов : Front: L C R, Side: L R, LFE
Частота : 48,0 КГц
Частота кадров : 31,250 кадров/сек (1536 SPF)
Битовая глубина : 16 бит
Метод сжатия : С потерями
Размер потока : 372 Мбайт (25%)
Выравнивание : Разделение по промежуткам
Продолжительность промежутка : 42 мс. (1,00 видеокадр)
Время предзагрузки промежутка : 500 мс.
ЗалилSеvеn
Ссылка Пассажиры / Passengers (HDRip) скачать торрент находится под похожими раздачами Download Torrent
Пассажиры / Passengers (HDRip) скачать торрент
Скриншоты Пассажиры / Passengers

скачать торрент, Игры на PC, Download Torrent, мультфильм, фильм, hdrip, Фантастика
Добавил: SxS | Просмотров: 7 | Загрузок: 1 | Рейтинг: 0.0/0
Добавлять комментарии могут только зарегистрированные пользователи.
[ Регистрация | Вход ]
Ужасы [55]
Horrors
Фантастика [57]
Fantastic
Боевик [66]
Action
Триллер [53]
Thriller
Криминал [1]
Crime
Военный [2]
Military
Вестерн [7]
Western
Документальный [6]
Documentary
Биография [1]
Biography
Драма [184]
Drama
Мелодрама [11]
Melodrama
Комедия [48]
Comedy
Мюзикл [3]
Musical
Приключения [4]
Adventure
Пародия [3]
Parody
Мультфильмы [13]
Cartoons
Мультсериал [1]
Animated series
Аниме [2]
Anime
Форма входа
Поиск
Лучшие раздачи