Приветствую Вас Гость

Total War: ARENA
Торрент-Трекер » HDRip » Фантастика

Мир будущего / Future World (HDRip) скачать торрент

[ Раздача закрыта по требованию правообладателя ]



Мир будущего / Future World (HDRip) скачать торрент Фантастика - Торрент-Трекер

Информация о фильме
Название: Мир будущего
Оригинальное название: Future World
Год выпуска: 2018
Страна: США
Жанр: фантастика

Перевод: Профессиональный многоголосый [HDrezka Studio]
Продолжительность: 01:28:08
Режиссер: Джеймс Франко , Брюс Тьерри Чунг
В ролях: Джеймс Франко (Warlord), Сьюки Уотерхаус (Ash), Джеффри Уолберг (Prince), Маргарита Левиева (Lei), Снуп Догг (Love Lord), Твин Шадоу (Ratcatcher), Метод Мэн (Tattooed Face), Люси Лью (Queen), Милла Йовович (Drug Lord), Кармен Ардженциано (Grandfather), Скотт Хэйз (Gutter), Румер Уиллис (Rosie)

Описание:
Молодой человек, живущий в постапокалиптическом мире, вынужден отправиться в рискованное путешествие в мрачный и опасный мир Пустоши, чтобы отыскать лекарство для больной матери.
Рейтинг:

MPAA : R - Лицам до 17 лет обязательно присутствие взрослого
Качество: HDRip
Формат: AVI
Видео: XviD, 720x304 (2.37:1), 2024 kbps, 23,976 fps, 0,386 bpp
Аудио: AC3 / 2.0 / 48 kHz / 192 kbps /

ОтчетМедиаИнфо
Общее
Полное имя: F:Future.World.2018.MVO.HDRip.R.G.Resident.avi
Формат: AVI
Формат/Информация: Audio Video Interleave
Размер файла: 1,37 Гбайт
Продолжительность: 1 ч. 28 м.
Общий поток: 2225 Кбит/сек
Программа кодирования: VirtualDubModRus 1.5.10.2 (build 2542/release)
Библиотека кодирования: VirtualDubMod build 2542/release

Видео
Идентификатор: 0
Формат: MPEG-4 Visual
Профиль формата: Advanced Simple@L5
Настройки формата: BVOP1 / Custom Matrix
Параметр BVOP формата: 1
Параметр QPel формата: Нет
Параметр GMC формата: Без точки перехода
Параметр матрицы формата: Выборочная
Идентификатор кодека: XVID
Идентификатор кодека/Подсказка: XviD
Продолжительность: 1 ч. 28 м.
Битрейт: 2024 Кбит/сек
Ширина: 720 пикселей
Высота: 304 пикселя
Соотношение сторон: 2,35:1
Частота кадров: 23,976 (24000/1001) кадра/сек
Цветовое пространство: YUV
Субдискретизация насыщенности: 4:2:0
Битовая глубина: 8 бит
Тип развёртки: Прогрессивная
Метод сжатия: С потерями
Бит/(Пиксели*Кадры): 0.386
Размер потока: 1,25 Гбайт (91%)
Библиотека кодирования: XviD 73

Аудио
Идентификатор: 1
Формат: AC-3
Формат/Информация: Audio Coding 3
Идентификатор кодека: 2000
Продолжительность: 1 ч. 28 м.
Вид битрейта: Постоянный
Битрейт: 192 Кбит/сек
Каналы: 2 канала
Расположение каналов: Front: L R
Частота: 48,0 КГц
Частота кадров: 31,250 кадров/сек (1536 SPF)
Битовая глубина: 16 бит
Метод сжатия: С потерями
Размер потока: 121 Мбайт (9%)
Выравнивание: Разделение по промежуткам
Продолжительность промежутка: 42 мс. (1,00 видеокадр)
Время предзагрузки промежутка: 500 мс.



ЗалилR.G. Resident
Ссылка Мир будущего / Future World (HDRip) скачать торрент Фантастика - Торрент-Трекер находится под похожими раздачами Download Torrent
Мир будущего / Future World (HDRip) скачать торрент Фантастика - Торрент-Трекер
Скриншоты Мир будущего / Future World

скачать торрент, Игры на PC, Download Torrent, мультфильм, фильм, hdrip, Фантастика
Добавил: SxS | Просмотров: 136 | Загрузок: 13 | Рейтинг: 5.0/1
Добавлять комментарии могут только зарегистрированные пользователи.
[ Регистрация | Вход ]
Ужасы [56]
Horrors
Фантастика [58]
Fantastic
Боевик [66]
Action
Триллер [53]
Thriller
Криминал [2]
Crime
Военный [2]
Military
Вестерн [7]
Western
Документальный [6]
Documentary
Биография [2]
Biography
Драма [186]
Drama
Мелодрама [12]
Melodrama
Комедия [49]
Comedy
Мюзикл [3]
Musical
Приключения [5]
Adventure
Пародия [3]
Parody
Мультфильмы [13]
Cartoons
Мультсериал [1]
Animated series
Аниме [2]
Anime
Форма входа
Поиск
Лучшие раздачи