Приветствую Вас Гость

Total War: ARENA
Торрент-Трекер » HDRip » Фантастика

Черепашки-ниндзя 2 / Teenage Mutant Ninja Turtles: Out of the Shadows (HDRip) скачать торрент

[ Раздача закрыта по требованию правообладателя ]



Черепашки-ниндзя 2 / Teenage Mutant Ninja Turtles: Out of the Shadows (HDRip) скачать торрент Фантастика - Торрент-Трекер

Информация о фильме
Название:Черепашки-ниндзя 2
Оригинальное название:Teenage Mutant Ninja Turtles: Out of the Shadows
Год выхода:2016
Жанр:Фантастика, Боевик, Комедия, Приключения
Режиссер:Дэйв Грин
В ролях:Меган Фокс, Уилл Арнетт, Лора Линни, Стивен Амелл, Ноэль Фишер, Джереми Ховард, Пит Пложек, Алан Ричсон, Тайлер Перри, Брайан Ти

О фильме:Долгое время черепашки-ниндзя скрывались от людей в лабиринтах городской канализации. На протяжении нескольких лет учитель Сплинтер обучал их боевым искусствам и прививал им чувство справедливости. В один прекрасный момент им пришлось подняться наверх, чтобы спасти Нью-Йорк от Шредера, предводителя Клана Футов, захватившего власть в Нью-Йорке. Вместе с отважным репортером Эйприл и ее оператором Верном, бесстрашные воины смогли одержать победу и очистить любимый город от преступности. Леонардо, Микеланджело, Рафаэль и Донателло нашли свое предназначение в этом мире и стали защитниками своего города. Они навели порядок в Нью-Йорке и с чистой совестью могли отправиться на покой, но однажды им вновь пришлось столкнуться с могущественным врагом, угрожающим их городу.

Страна:США, Гонконг, Китай, Канада
Продолжительность:01:52:07
Перевод:Авторский (одноголосый, закадровый) Ю.Живов
Субтитры:Нет

Файл
Кодек:XviD
Качество:HDRip
Видео:720x304 (2.37:1), 23.976 fps, XviD build 73 ~786 kbps avg, 0.15 bit/pixel
Звук:48 kHz, MPEG Layer 3, 2 ch, ~128.00 kbps avg

MediaInfo
General
Complete name : Out.of.the.Shadows.2016.HDRip.ot.Portablius.avi
Format : AVI
Format/Info : Audio Video Interleave
File size : 741 MiB
Duration : 1 h 52 min
Overall bit rate : 923 kb/s
Writing application : VirtualDubMod 1.5.10.3 | www.virtualdub-fr.org || (build 2550/release)
Writing library : VirtualDubMod build 2550/release

Video
ID : 0
Format : MPEG-4 Visual
Format profile : Advanced Simple@L5
Format settings, BVOP : 1
Format settings, QPel : No
Format settings, GMC : No warppoints
Format settings, Matrix : Custom
Codec ID : XVID
Codec ID/Hint : XviD
Duration : 1 h 52 min
Bit rate : 786 kb/s
Width : 720 pixels
Height : 304 pixels
Display aspect ratio : 2.35:1
Frame rate : 23.976 (24000/1001) FPS
Color space : YUV
Chroma subsampling : 4:2:0
Bit depth : 8 bits
Scan type : Progressive
Compression mode : Lossy
Bits/(Pixel*Frame) : 0.150
Stream size : 630 MiB (85%)
Writing library : XviD 73

Audio
ID : 1
Format : MPEG Audio
Format version : Version 1
Format profile : Layer 3
Codec ID : 55
Codec ID/Hint : MP3
Duration : 1 h 52 min
Bit rate mode : Constant
Bit rate : 128 kb/s
Channel(s) : 2 channels
Sampling rate : 48.0 kHz
Compression mode : Lossy
Stream size : 103 MiB (14%)
Alignment : Aligned on interleaves
Interleave, duration : 42 ms (1.00 video frame)
Interleave, preload duratio : 504 ms
Writing library : LAME3.99r
Encoding settings : -m s -V 4 -q 2 -lowpass 17 -b 128


ЗалилEvgen Portable
Ссылка Черепашки-ниндзя 2 / Teenage Mutant Ninja Turtles: Out of the Shadows (HDRip) скачать торрент Фантастика - Торрент-Трекер находится под похожими раздачами Download Torrent
Черепашки-ниндзя 2 / Teenage Mutant Ninja Turtles: Out of the Shadows (HDRip) скачать торрент Фантастика - Торрент-Трекер
Скриншоты Черепашки-ниндзя 2 / Teenage Mutant Ninja Turtles: Out of the Shadows

скачать торрент, Игры на PC, Download Torrent, мультфильм, фильм, hdrip, Фантастика
Добавил: SxS | Просмотров: 15 | Рейтинг: 0.0/0
Добавлять комментарии могут только зарегистрированные пользователи.
[ Регистрация | Вход ]
Ужасы [56]
Horrors
Фантастика [58]
Fantastic
Боевик [66]
Action
Триллер [54]
Thriller
Криминал [2]
Crime
Военный [2]
Military
Вестерн [7]
Western
Документальный [6]
Documentary
Биография [2]
Biography
Драма [188]
Drama
Мелодрама [12]
Melodrama
Комедия [50]
Comedy
Мюзикл [3]
Musical
Приключения [5]
Adventure
Пародия [3]
Parody
Мультфильмы [13]
Cartoons
Мультсериал [1]
Animated series
Аниме [2]
Anime
Форма входа
Поиск
Лучшие раздачи