Приветствую Вас Гость

Total War: ARENA
Торрент-Трекер » HDRip » Фантастика

Бюро человечества / The Humanity Bureau (HDRip) скачать торрент

[ Раздача закрыта по требованию правообладателя ]



Бюро человечества / The Humanity Bureau (HDRip) скачать торрент Фантастика - Торрент-Трекер

Информация о фильме
Название:Бюро человечества
Оригинальное название:The Humanity Bureau
Год выхода:2017
Жанр:фантастика, боевик
Режиссер:Роб В. Кинг
В ролях:Николас Кейдж, Сара Линд, Хью Диллон, Виселос Реон Шеннон, Джейкоб Дейвис, Лорни Кардинал, Джетт Клине, Дэвид Ловгрен, Лео Фафард, Курт Макс Рунте

О фильме:В отдалённом будущем американское правительство утвердило секретную программу, по которой бедных, необразованных и неугодных стране людей сначала высылают в колонию, а затем уничтожают. Одно из таких дел попадает в руки агента Ноа Кросса. Проникшись симпатией к одинокой матери и её сыну, он решает помочь им бежать.

Страна:Канада
Продолжительность:01:34:35
Перевод:Любительский (многоголосый, закадровый) | @MUZOBOZ@
Субтитры:Нет

Файл
Кодек:XviD
Качество:HDRip
Видео:720x304 (2.37:1), 24 fps, XviD build 73 ~896 kbps avg, 0.17 bit/pixel
Звук:48 kHz, MPEG Layer 3, 2 ch, ~128.00 kbps avg

MediaInfo
General
Complete name : The.Humanity.Bureau.2017.HDRip.ot.Portablius.avi
Format : AVI
Format/Info : Audio Video Interleave
File size : 699 MiB
Duration : 1 h 34 min
Overall bit rate : 1 033 kb/s
Writing application : VirtualDubMod 1.5.10.3 | www.virtualdub-fr.org || (build 2550/release)
Writing library : VirtualDubMod build 2550/release

Video
ID : 0
Format : MPEG-4 Visual
Format profile : Advanced Simple@L5
Format settings, BVOP : 1
Format settings, QPel : No
Format settings, GMC : No warppoints
Format settings, Matrix : Custom
Codec ID : XVID
Codec ID/Hint : XviD
Duration : 1 h 34 min
Bit rate : 896 kb/s
Width : 720 pixels
Height : 304 pixels
Display aspect ratio : 2.35:1
Frame rate : 24.000 FPS
Color space : YUV
Chroma subsampling : 4:2:0
Bit depth : 8 bits
Scan type : Progressive
Compression mode : Lossy
Bits/(Pixel*Frame) : 0.171
Stream size : 606 MiB (87%)
Writing library : XviD 73

Audio
ID : 1
Format : MPEG Audio
Format version : Version 1
Format profile : Layer 3
Codec ID : 55
Codec ID/Hint : MP3
Duration : 1 h 34 min
Bit rate mode : Constant
Bit rate : 128 kb/s
Channel(s) : 2 channels
Sampling rate : 48.0 kHz
Compression mode : Lossy
Stream size : 86.3 MiB (12%)
Alignment : Aligned on interleaves
Interleave, duration : 42 ms (1.00 video frame)
Interleave, preload duratio : 504 ms
Writing library : LAME3.99r
Encoding settings : -m s -V 4 -q 2 -lowpass 17 -b 128


ЗалилEvgen Portable
Ссылка Бюро человечества / The Humanity Bureau (HDRip) скачать торрент Фантастика - Торрент-Трекер находится под похожими раздачами Download Torrent
Бюро человечества / The Humanity Bureau (HDRip) скачать торрент Фантастика - Торрент-Трекер
Скриншоты Бюро человечества / The Humanity Bureau

скачать торрент, Игры на PC, Download Torrent, мультфильм, фильм, hdrip, Фантастика
Добавил: SxS | Просмотров: 12 | Загрузок: 1 | Рейтинг: 0.0/0
Добавлять комментарии могут только зарегистрированные пользователи.
[ Регистрация | Вход ]
Ужасы [56]
Horrors
Фантастика [58]
Fantastic
Боевик [66]
Action
Триллер [54]
Thriller
Криминал [2]
Crime
Военный [2]
Military
Вестерн [7]
Western
Документальный [6]
Documentary
Биография [2]
Biography
Драма [188]
Drama
Мелодрама [12]
Melodrama
Комедия [50]
Comedy
Мюзикл [3]
Musical
Приключения [5]
Adventure
Пародия [3]
Parody
Мультфильмы [13]
Cartoons
Мультсериал [1]
Animated series
Аниме [2]
Anime
Форма входа
Поиск
Лучшие раздачи