Приветствую Вас Гость

Total War: ARENA
Торрент-Трекер » HDRip » Драма

Золотые бутсы / Golden Shoes (HDRip) скачать торрент

[ Раздача закрыта по требованию правообладателя ]



Золотые бутсы / Golden Shoes (HDRip) скачать торрент Драма - Торрент-Трекер

Информация о фильме
Название: Золотые бутсы / Золотые туфельки
Оригинальное название: Golden Shoes
Год выхода: 2015
Жанр: драма, семейный, спорт
Режиссер: Лэнс Кауэс
В ролях: Кристиан Коза, Дэвид ДеЛуис, Джон Рис-Дэвис, Вивика А. Фокс, Дина Мейер, Джошуа Морроу, Аэдин Минкс, Джон Уэсли Шипп, Монтель Уильямс, Эрик Робертс

О фильме:
Восьмилетний Кристиан обожает футбол и мечтает стать знаменитым футболистом, как его кумир Кришитану Роналду. Но в команде его не любят, а тренер не верит в его талант. Ко всему прочему отец мальчика пропадает без вести в Ираке, а мать попадает в серьезную аварию. Пока мама в больнице, за мальчиком присматривает сосед Фрэнк. Он дарит Кристиану новые бутсы, которые, по его словам, принесут мальчику удачу. И Кристиан действительно поверил в это и стал играть лучше, становясь все ближе к своей мечте — попасть в Национальную молодежную лигу США. «Золотые бутсы» — семейная спортивная драма о юном футболисте, неукротимо идущем к своей мечте.



Производство: США / Norman Koza Productions
Продолжительность: 01:28:56
Перевод: профессиональный (многоголосый закадровый) [официальный звук]

Файл
Качество: HDRip
Формат: AVI
Видео: XviD, 720x400 (16:9), 23.976 fps, 1822 kbps, 0.264 bit/pixel
Аудио #1: русский, AC3 2.0, 48 kHz, 192 kbps
Аудио #2: английский, AC3 5.1, 48 kHz, 384 kbps

MediaInfo
Общее
Полное имя: Golden.Shoes.2015.HDRip.avi
Формат: AVI
Формат/Информация: Audio Video Interleave
Размер файла: 1,50 Гбайт
Продолжительность: 1 ч. 28 м.
Общий поток: 2412 Кбит/сек
Программа кодирования: VirtualDubModRus 1.5.10.2 (build 2542/release)
Библиотека кодирования: VirtualDubMod build 2542/release

Видео
Идентификатор: 0
Формат: MPEG-4 Visual
Профиль формата: Advanced Simple@L5
Параметр BVOP формата: 2
Параметр QPel формата: Нет
Параметр GMC формата: Без точки перехода
Параметр матрицы формата: Default (H.263)
Режим смешивания: Сжатый битовый поток
Идентификатор кодека: XVID
Идентификатор кодека/Подсказка: XviD
Продолжительность: 1 ч. 28 м.
Битрейт: 1822 Кбит/сек
Ширина: 720 пикселей
Высота: 400 пикселей
Соотношение сторон: 16:9
Частота кадров: 23,976 кадра/сек
Цветовое пространство: YUV
Субдискретизация насыщенности: 4:2:0
Битовая глубина: 8 бит
Тип развёртки: Прогрессивная
Метод сжатия: С потерями
Бит/(Пиксели*Кадры): 0.264
Размер потока: 1,13 Гбайт (76%)
Библиотека кодирования: XviD 66

Аудио #1
Идентификатор: 1
Формат: AC-3
Формат/Информация: Audio Coding 3
Расширение режима: CM (complete main)
Параметр Endianness формата: Big
Идентификатор кодека: 2000
Продолжительность: 1 ч. 28 м.
Вид битрейта: Постоянный
Битрейт: 192 Кбит/сек
Каналы: 2 канала
Расположение каналов: Front: L R
Частота: 48,0 КГц
Метод сжатия: С потерями
Размер потока: 122 Мбайт (8%)
Выравнивание: Разделение по промежуткам
Продолжительность промежутка: 42 мс. (1,00 видеокадр)
Время предзагрузки промежутка: 500 мс.

Аудио #2
Идентификатор: 2
Формат: AC-3
Формат/Информация: Audio Coding 3
Расширение режима: CM (complete main)
Параметр Endianness формата: Big
Идентификатор кодека: 2000
Продолжительность: 1 ч. 28 м.
Вид битрейта: Постоянный
Битрейт: 384 Кбит/сек
Каналы: 6 каналов
Расположение каналов: Front: L C R, Side: L R, LFE
Частота: 48,0 КГц
Метод сжатия: С потерями
Размер потока: 244 Мбайт (16%)
Выравнивание: Соединение по промежуткам
Продолжительность промежутка: 42 мс. (1,00 видеокадр)
Время предзагрузки промежутка: 512 м
Ссылка Золотые бутсы / Golden Shoes (HDRip) скачать торрент Драма - Торрент-Трекер находится под похожими раздачами Download Torrent
Золотые бутсы / Golden Shoes (HDRip) скачать торрент Драма - Торрент-Трекер
Скриншоты Золотые бутсы / Golden Shoes

скачать торрент, Игры на PC, Download Torrent, мультфильм, фильм, hdrip, Драма
Добавил: SxS | Просмотров: 29 | Рейтинг: 0.0/0
Добавлять комментарии могут только зарегистрированные пользователи.
[ Регистрация | Вход ]
Ужасы [74]
Horrors
Фантастика [69]
Fantastic
Боевик [71]
Action
Триллер [63]
Thriller
Криминал [2]
Crime
Военный [2]
Military
Вестерн [9]
Western
Документальный [6]
Documentary
Биография [2]
Biography
Драма [208]
Drama
Мелодрама [18]
Melodrama
Комедия [58]
Comedy
Мюзикл [5]
Musical
Приключения [8]
Adventure
Пародия [5]
Parody
Мультфильмы [18]
Cartoons
Мультсериал [1]
Animated series
Аниме [2]
Anime
Форма входа
Поиск
Лучшие раздачи