Приветствую Вас Гость

Total War: ARENA
Торрент-Трекер » HDRip » Драма

Зимняя спячка / Kis Uykusu (HDRip) скачать торрент

[ Раздача закрыта по требованию правообладателя ]



Зимняя спячка / Kis Uykusu (HDRip) скачать торрент Драма - Торрент-Трекер

Зимняя спячка / Winter Sleep / Kis Uykusu

Страна: Турция Германия Франция
Производство: Bredok Filmproduction, CNC, Eurimages, Imaj, Mars Entertainment Group, NBC Film, Sony, Zeynofilm
Год выпуска: 2014
Жанр:драма
Продолжительность: 03:16:45

Режиссер: Нури Бильге Джейлан
Авторы сценария: Эбру Джейлан, Нури Бильге Джейлан, Антон Чехов

В ролях: Халук Бильгинер, Мелиса Сёзен, Демет Акбаг, Айберк Пекджан, Серхат Мустафа Кылыч, Неджат Ишлер, Тамер Левент, Надир Сарыбаджак

Описание: Отель «Отелло» в Анатолии. Им управляет импозантный седовласый Айдин, бывший театральный актер, чья слава давно прошла. Вместе с ним живут красавица-жена, занимающаяся благотворительностью, и сестра, тоскующая по мужу, с которым не так давно развелась. Небывалый снегопад отрезает отель от цивилизации, и он становится убежищем для этих трёх человек и декорацией, в которой разыгрываются сцены их мучений...

Перевод: Профессиональный (многоголосый, закадровый) | Кинопоказ
Субтитры: нет

Качество: HDRip | исходник Kis.uykusu.2014.720p.BluRay.2xRus.Tur.ac3.dts.subs.EA.0dayTeam
Формат: AVI
Видео кодек: XviD
Аудио кодек: МР3
Видео: 720x304 (2.35:1), 23.976 fps, XviD ~793 kbps avg
Аудио №1: 48.0 kHz, MPEG Layer 3, 2 ch, ~128 kbps avg | RUS
Аудио №2: 48.0 kHz, MPEG Layer 3, 2 ch, ~128 kbps avg | TUR

Дата премьеры (мир): 16 мая 2014
Дата премьеры (РФ): 28 августа 2014, «Cinema Prestige»

Призы Каннского кинофестиваля, 2014 год
» Золотая пальмовая ветвь
» Приз ФИПРЕССИ - конкурсная программа

Релиз от: Arle-kino

Media Info
General
Complete name : Zimnaja.spjachka.(Kis.uykusu).2014.HDRip.rus.tur.avi
Format : AVI
Format/Info : Audio Video Interleave
File size : 1.46 GiB
Duration : 3h 16mn
Overall bit rate : 1 063 Kbps
Writing application : VirtualDubMod 1.5.10.2 (build 2540/release)
Writing library : VirtualDubMod build 2540/release

Video
ID : 0
Format : MPEG-4 Visual
Format profile : Advanced Simple@L5
Format settings, BVOP : 1
Format settings, QPel : No
Format settings, GMC : No warppoints
Format settings, Matrix : Default (MPEG)
Codec ID : XVID
Codec ID/Hint : XviD
Duration : 3h 16mn
Bit rate : 793 Kbps
Width : 720 pixels
Height : 304 pixels
Display aspect ratio : 2.35:1
Frame rate : 23.976 fps
Color space : YUV
Chroma subsampling : 4:2:0
Bit depth : 8 bits
Scan type : Progressive
Compression mode : Lossy
Bits/(Pixel*Frame) : 0.151
Stream size : 1.09 GiB (75%)
Writing library : XviD 1.2.1 (UTC 2008-12-04)

Audio #1
ID : 1
Format : MPEG Audio
Format version : Version 1
Format profile : Layer 3
Codec ID : 55
Codec ID/Hint : MP3
Duration : 3h 16mn
Bit rate mode : Constant
Bit rate : 128 Kbps
Channel(s) : 2 channels
Sampling rate : 48.0 KHz
Compression mode : Lossy
Stream size : 180 MiB (12%)
Alignment : Aligned on interleaves
Interleave, duration : 42 ms (1.00 video frame)
Interleave, preload duration : 504 ms
Title : Rus
Writing library : LAME3.98r
Encoding settings : -m s -V 4 -q 2 -lowpass 17 -b 128

Audio #2
ID : 2
Format : MPEG Audio
Format version : Version 1
Format profile : Layer 3
Codec ID : 55
Codec ID/Hint : MP3
Duration : 3h 16mn
Bit rate mode : Constant
Bit rate : 128 Kbps
Channel(s) : 2 channels
Sampling rate : 48.0 KHz
Compression mode : Lossy
Stream size : 180 MiB (12%)
Alignment : Aligned on interleaves
Interleave, duration : 42 ms (1.00 video frame)
Interleave, preload duration : 504 ms
Title : Tur
Writing library : LAME3.98r
Encoding settings : -m s -V 4 -q 2 -lowpass 17 -b 128
ЗалилZha-4k-e
Ссылка Зимняя спячка / Kis Uykusu (HDRip) скачать торрент Драма - Торрент-Трекер находится под похожими раздачами Download Torrent
Зимняя спячка / Kis Uykusu (HDRip) скачать торрент Драма - Торрент-Трекер
Скриншоты Зимняя спячка / Kis Uykusu

скачать торрент, Игры на PC, Download Torrent, мультфильм, фильм, hdrip, Драма
Добавил: SxS | Просмотров: 9 | Загрузок: 1 | Рейтинг: 0.0/0
Добавлять комментарии могут только зарегистрированные пользователи.
[ Регистрация | Вход ]
Ужасы [56]
Horrors
Фантастика [58]
Fantastic
Боевик [66]
Action
Триллер [54]
Thriller
Криминал [2]
Crime
Военный [2]
Military
Вестерн [7]
Western
Документальный [6]
Documentary
Биография [2]
Biography
Драма [188]
Drama
Мелодрама [12]
Melodrama
Комедия [50]
Comedy
Мюзикл [3]
Musical
Приключения [5]
Adventure
Пародия [3]
Parody
Мультфильмы [13]
Cartoons
Мультсериал [1]
Animated series
Аниме [2]
Anime
Форма входа
Поиск
Лучшие раздачи