Приветствую Вас Гость

World of Warships [SOI] RU+CIS
Торрент-Трекер » HDRip » Драма

Все решается в среду / Большая среда / Big Wednesday (HDRip) скачать торрент

[ ]



Все решается в среду / Большая среда / Big Wednesday (HDRip) скачать торрент Драма - Торрент-Трекер

Информация о фильме
Название: Все решается в среду (Большая среда)
Оригинальное название: Big Wednesday
Год выхода: 1978
Жанр: Драма, спорт
Режиссер: Джон Милиус
В ролях: Ян-Майкл Винсент, Уильям Кэтт, Гэри Бьюзи, Патти Д`Арбанвилль, Ли Пурселл, Сэм Мелвилл, Дэррел Фетти, Джерри Лопес, Хэнк Уорден, Джо Спинелл

О фильме:
Красочная история отношений и взросления трех друзей-сёрфенгистов протяженностью в 12 лет. Любовь к морю, закатам в Малибу, экстремальному и красивому виду спорта объединяет этих разных парней: Мэтта, Джека и Лероя.

Выпущено: США, A-Team
Продолжительность: 01:59:39
Перевод: Профессиональный многоголосый, авторский

Файл
Кодек: XviD
Качество: HDRip | Big.Wednesday.1978.1080p.BluRay.x264-SiNNERS
Видео: 720x304 (2.35:1), 23.976 fps, 1350 kbps, 0.257 bit/pixel
Звук №1: 48 kHz, AC3 Dolby Digital, 2/0 ch, 192 kbps | Профессиональный многоголосый (iTunes)
Звук №2: 48 kHz, AC3 Dolby Digital, 2/0 ch, 192 kbps | Авторский (Визгунов)

Инфо-файл
Формат: AVI
Формат/Информация: Audio Video Interleave
Размер файла: 1,46 Гбайт
Продолжительность: 1 ч. 59 м.
Общий поток: 1748 Кбит/сек
Название фильма: Big.Wednesday.1978.HDRip.ExKinoRay
Режиссёр: Rip by zzZGVvv
Программа кодирования: VirtualDubMod 1.5.10.3 (build 2550/release)

Видео
Идентификатор: 0
Формат: MPEG-4 Visual
Профиль формата: Advanced Simple@L5
Параметр BVOP формата: 2
Параметр QPel формата: Нет
Параметр GMC формата: Без точки перехода
Параметр матрицы формата: Default (H.263)
Идентификатор кодека: XVID
Идентификатор кодека/Подсказка: XviD
Продолжительность: 1 ч. 59 м.
Битрейт: 1350 Кбит/сек
Ширина: 720 пикселей
Высота: 304 пикселя
Соотношение сторон: 2,35:1
Частота кадров: 23,976 кадра/сек
Цветовое пространство: YUV
Субдискретизация насыщенности: 4:2:0
Битовая глубина: 8 бит
Тип развёртки: Прогрессивная
Метод сжатия: С потерями
Бит/(Пиксели*Кадры): 0.257
Размер потока: 1,13 Гбайт (77%)
Библиотека кодирования: XviD 73

Аудио #1
Идентификатор: 1
Формат: AC-3
Формат/Информация: Audio Coding 3
Расширение режима: CM (complete main)
Параметр Endianness формата: Big
Идентификатор кодека: 2000
Продолжительность: 1 ч. 59 м.
Вид битрейта: Постоянный
Битрейт: 192 Кбит/сек
Каналы: 2 канала
Расположение каналов: Front: L R
Частота: 48,0 КГц
Метод сжатия: С потерями
Размер потока: 164 Мбайт (11%)
Выравнивание: Разделение по промежуткам
Продолжительность промежутка: 42 мс. (1,00 видеокадр)
Время предзагрузки промежутка: 500 мс.

Аудио #2
Идентификатор: 2
Формат: AC-3
Формат/Информация: Audio Coding 3
Расширение режима: CM (complete main)
Параметр Endianness формата: Big
Идентификатор кодека: 2000
Продолжительность: 1 ч. 59 м.
Вид битрейта: Постоянный
Битрейт: 192 Кбит/сек
Каналы: 2 канала
Расположение каналов: Front: L R
Частота: 48,0 КГц
Метод сжатия: С потерями
Размер потока: 164 Мбайт (11%)
Выравнивание: Разделение по промежуткам
Продолжительность промежутка: 42 мс. (1,00 видеокадр)
Время предзагрузки промежутка: 500 м
Ссылка Все решается в среду / Большая среда / Big Wednesday (HDRip) скачать торрент Драма - Торрент-Трекер находится под похожими раздачами Download Torrent
Все решается в среду / Большая среда / Big Wednesday (HDRip) скачать торрент Драма - Торрент-Трекер
Скриншоты Все решается в среду / Большая среда / Big Wednesday

скачать торрент, Игры на PC, Download Torrent, мультфильм, фильм, hdrip, Драма
Добавил: SxS | Просмотров: 8 | Рейтинг: 0.0/0
Добавлять комментарии могут только зарегистрированные пользователи.
[ Регистрация | Вход ]
Ужасы [96]
Horrors
Фантастика [82]
Fantastic
Боевик [94]
Action
Триллер [100]
Thriller
Криминал [3]
Crime
Военный [2]
Military
Вестерн [11]
Western
Документальный [6]
Documentary
Биография [3]
Biography
Драма [244]
Drama
Мелодрама [23]
Melodrama
Комедия [71]
Comedy
Мюзикл [5]
Musical
Приключения [13]
Adventure
Пародия [6]
Parody
Мультфильмы [22]
Cartoons
Мультсериал [1]
Animated series
Аниме [2]
Anime
Форма входа
Поиск
Лучшие раздачи