Приветствую Вас Гость

World of Warships [SOI] RU+CIS
Торрент-Трекер » HDRip » Драма

Всадник по имени Смерть (HDRip) скачать торрент

[ ]



Всадник по имени Смерть (HDRip) скачать торрент Драма - Торрент-Трекер

Информация о фильме
Название:Всадник по имени Смерть
Год выхода:2004
Жанр:Драма
Режиссер:Карен Шахназаров
В ролях:Андрей Панин, Ксения Раппопорт, Артем Семакин, Ростислав Бершауэр, Анастасия Макеева, Алексей Казаков, Дмитрий Дюжев, Валерий Сторожик, Василий Зотов, Дмитрий Гусев..

О фильме:Россия начала XX века. Совершен ряд кровавых террористических актов, направленных против высоких должностных лиц государства. Главная цель террористов — убийство Великого князя Сергея Александровича. Покушение готовят члены так называемой «Боевой организации» — ее руководитель Жорж. Процесс подготовки теракта раскрывает психику, чувства и стремления террористов, каждый из которых идет на террор по различным причинам: во имя любви к ближнему, в порыве мести, во имя принципа, веры в светлое будущее. Одна за другой проваливаются попытки теракта — гибнут практически все его организаторы. Оставшийся в живых Жорж внезапно осознает, что дело убийства Великого князя становится для него смыслом его существования, и что ради осуществления задуманного он пойдет на все. Он совершает дерзкое убийство, однако, его ждет разочарование.

Страна:Россия
Продолжительность:01:46:26
Перевод:Не требуется
Субтитры:Нет

Файл
Кодек:XviD
Качество:HDRip
Видео:640x384 (1.67:1), 23.976 fps, XviD build 73 ~842 kbps avg, 0.14 bit/pixel
Звук:48 kHz, MPEG Layer 3, 2 ch, ~128.00 kbps avg

MediaInfo
General
Complete name : Vsadnik.po.imeni.Smert.2004.HDRip.ot.Portablius.avi
Format : AVI
Format/Info : Audio Video Interleave
File size : 746 MiB
Duration : 1 h 46 min
Overall bit rate : 980 kb/s
Writing application : VirtualDubMod 1.5.10.3 | www.virtualdub-fr.org || (build 2550/release)
Writing library : VirtualDubMod build 2550/release

Video
ID : 0
Format : MPEG-4 Visual
Format profile : Advanced Simple@L5
Format settings, BVOP : 1
Format settings, QPel : No
Format settings, GMC : No warppoints
Format settings, Matrix : Custom
Codec ID : XVID
Codec ID/Hint : XviD
Duration : 1 h 46 min
Bit rate : 843 kb/s
Width : 640 pixels
Height : 384 pixels
Display aspect ratio : 5:3
Frame rate : 23.976 (24000/1001) FPS
Color space : YUV
Chroma subsampling : 4:2:0
Bit depth : 8 bits
Scan type : Progressive
Compression mode : Lossy
Bits/(Pixel*Frame) : 0.143
Stream size : 642 MiB (86%)
Writing library : XviD 73

Audio
ID : 1
Format : MPEG Audio
Format version : Version 1
Format profile : Layer 3
Codec ID : 55
Codec ID/Hint : MP3
Duration : 1 h 46 min
Bit rate mode : Constant
Bit rate : 128 kb/s
Channel(s) : 2 channels
Sampling rate : 48.0 kHz
Compression mode : Lossy
Stream size : 97.4 MiB (13%)
Alignment : Aligned on interleaves
Interleave, duration : 42 ms (1.00 video frame)
Interleave, preload duratio : 504 ms
Writing library : LAME3.99r
Encoding settings : -m s -V 4 -q 2 -lowpass 17 -b 128


ЗалилEvgen Portable
Ссылка Всадник по имени Смерть (HDRip) скачать торрент Драма - Торрент-Трекер находится под похожими раздачами Download Torrent
Всадник по имени Смерть (HDRip) скачать торрент Драма - Торрент-Трекер
Скриншоты Всадник по имени Смерть

скачать торрент, Игры на PC, Download Torrent, мультфильм, фильм, hdrip, Драма
Добавил: SxS | Просмотров: 69 | Рейтинг: 0.0/0
Добавлять комментарии могут только зарегистрированные пользователи.
[ Регистрация | Вход ]
Ужасы [101]
Horrors
Фантастика [86]
Fantastic
Боевик [101]
Action
Триллер [104]
Thriller
Криминал [3]
Crime
Военный [2]
Military
Вестерн [11]
Western
Документальный [6]
Documentary
Биография [4]
Biography
Драма [264]
Drama
Мелодрама [24]
Melodrama
Комедия [77]
Comedy
Мюзикл [7]
Musical
Приключения [13]
Adventure
Пародия [6]
Parody
Мультфильмы [23]
Cartoons
Мультсериал [1]
Animated series
Аниме [2]
Anime
Форма входа
Поиск
Лучшие раздачи