Приветствую Вас Гость

Total War: ARENA
Торрент-Трекер » HDRip » Драма

СМС для тебя / SMS fur Dich (HDRip) скачать торрент

[ Раздача закрыта по требованию правообладателя ]



СМС для тебя / SMS fur Dich (HDRip) скачать торрент Драма - Торрент-Трекер

Информация о фильме
Название:СМС для тебя
Оригинальное название:SMS fur Dich
Год выхода:2016
Жанр:драма, мелодрама
Режиссер:Каролина Херфурт
В ролях:Каролина Херфурт, Фридрих Мюке, Нора Чирнер, Фредерик Лау, Катя Риман, Энисса Амани, Фридерике Кемптер, Самуэль Финци, Уве Пройсс

О фильме:Клара вот уже два года скорбит по своей большой любви. Не желая мириться с утратой, девушка посылает сообщения романтического характера на старый телефон своего умершего парня. Она и не догадывается, что его номер теперь принадлежит другому человеку, журналисту Марку. Полностью очарованный текстами сообщений, при поддержке своего друга, он пускается на поиски неизвестной отправительницы...

Страна:Германия
Студия:Hellinger / Doll Filmproduktion
Продолжительность:01:47:31
Перевод:Профессиональный (многоголосый, закадровый) | СВ Студия
Субтитры:Нет

Файл
Кодек:XviD
Качество:HDRip
Видео:688x288 (2.39:1), 23.976 fps, XviD build 73 ~766 kbps avg, 0.16 bit/pixel
Звук:48 kHz, MPEG Layer 3, 2 ch, ~128.00 kbps avg

MediaInfo
General
Complete name : SMS.Fur.Dich.2016.HDRip.ot.Portablius.avi
Format : AVI
Format/Info : Audio Video Interleave
File size : 695 MiB
Duration : 1 h 47 min
Overall bit rate : 904 kb/s
Writing application : VirtualDubMod 1.5.10.3 | www.virtualdub-fr.org || (build 2550/release)
Writing library : VirtualDubMod build 2550/release

Video
ID : 0
Format : MPEG-4 Visual
Format profile : Advanced Simple@L5
Format settings, BVOP : 1
Format settings, QPel : No
Format settings, GMC : No warppoints
Format settings, Matrix : Custom
Codec ID : XVID
Codec ID/Hint : XviD
Duration : 1 h 47 min
Bit rate : 767 kb/s
Width : 688 pixels
Height : 288 pixels
Display aspect ratio : 2.40:1
Frame rate : 23.976 (24000/1001) FPS
Color space : YUV
Chroma subsampling : 4:2:0
Bit depth : 8 bits
Scan type : Progressive
Compression mode : Lossy
Bits/(Pixel*Frame) : 0.161
Stream size : 590 MiB (85%)
Writing library : XviD 73

Audio
ID : 1
Format : MPEG Audio
Format version : Version 1
Format profile : Layer 3
Codec ID : 55
Codec ID/Hint : MP3
Duration : 1 h 47 min
Bit rate mode : Constant
Bit rate : 128 kb/s
Channel(s) : 2 channels
Sampling rate : 48.0 kHz
Compression mode : Lossy
Stream size : 98.4 MiB (14%)
Alignment : Aligned on interleaves
Interleave, duration : 42 ms (1.00 video frame)
Interleave, preload duratio : 504 ms
Writing library : LAME3.99r
Encoding settings : -m s -V 4 -q 2 -lowpass 17 -b 128


ЗалилEvgen Portable
Ссылка СМС для тебя / SMS fur Dich (HDRip) скачать торрент Драма - Торрент-Трекер находится под похожими раздачами Download Torrent
СМС для тебя / SMS fur Dich (HDRip) скачать торрент Драма - Торрент-Трекер
Скриншоты СМС для тебя / SMS fur Dich

скачать торрент, Игры на PC, Download Torrent, мультфильм, фильм, hdrip, Драма
Добавил: SxS | Просмотров: 8 | Рейтинг: 0.0/0
Добавлять комментарии могут только зарегистрированные пользователи.
[ Регистрация | Вход ]
Ужасы [56]
Horrors
Фантастика [58]
Fantastic
Боевик [66]
Action
Триллер [54]
Thriller
Криминал [2]
Crime
Военный [2]
Military
Вестерн [7]
Western
Документальный [6]
Documentary
Биография [2]
Biography
Драма [188]
Drama
Мелодрама [12]
Melodrama
Комедия [50]
Comedy
Мюзикл [3]
Musical
Приключения [5]
Adventure
Пародия [3]
Parody
Мультфильмы [13]
Cartoons
Мультсериал [1]
Animated series
Аниме [2]
Anime
Форма входа
Поиск
Лучшие раздачи